2 сезон

iTunes

MVO

1

2 сезон

iTunes

iTunes

1 сезон

RePack

30

Ultimate

ВАЖНО

ИГРА 18+

pack

RePack

MK11
pack

Легкие деньги

RePack

jed

RePack

fifa19

RePack

RDR2

RePack

NEED FOR SPEED™ PAYBACK

4 сезон

9 сезон

Бесстыжие 9 сезон

Все сериалы

все сериалы на PB.wtf

RePack

FAR CRY 5

Anonymous, доброе утро, мы не успеваем собрать деньги на оплату серверов за декабрь и январь, помогите нам пожалуйста в это трудное время. В качестве благодарности мы отключим Вам всю рекламу на сайте (укажите свой ник в строку Ваше имя)!

×
  
Magnet ссылка

Коматозники / Flatliners (Нильс Арден Оплев) [2017, фантастика, триллер, драма, BDRip-AVC] Дубляж - [Лицензия] pb.wtf

Коматозники через торрент pb.wtf

Раздают: 1 [ 0 KB/s ]
Размер: 1.46 GB | Добавлен: 2 года 10 мес. назад | Торрент скачан:342 раза
Скачать  

05-03-2018 18:26 Коматозники Скачать торрент  

Коматозники / Flatliners
««Перешёл черту? Будь готов к последствиям»»

Год выпуска: 2017
Страна: США, Канада
Жанр: фантастика, триллер, драма

Продолжительность: 01:49:46
Перевод: Дубляж - [Лицензия]
Субтитры: русские (Forced), русские (iTunes)
Режиссер: Нильс Арден Оплев
В ролях:

Эллен Пейдж (Courtney), Диего Луна (Ray), Нина Добрев (Marlo), Джеймс Нортон (Jamie), Кирси Клемонс (Sophia), Кифер Сазерленд (Dr. Barry Wolfson), Мэдисон Бриджес (Tessa), Джейкоб Соли (Alex), Анна Арден Оплев (Alicia), Мигель Энтони (Cyrus Gudgeon), Дженни Рэйвен (Irina Wong), Бо Мирчофф (Brad Mauser)
Описание:
Пятеро студентов-медиков, одержимых желанием узнать, что происходит с человеком после смерти, решаются на рискованный эксперимент: на время они останавливают друг другу сердце, чтобы погрузиться в состояние клинической смерти и на собственном опыте понять, что происходит с человеком по ту сторону. Но они забывают, что, переступив черту, нужно быть готовым к последствиям.
Рейтинг:

MPAA: PG-13 - Детям до 13 лет просмотр не желателен
Качество: BDRip-AVC
Формат: MKV
Видео: AVC, 1008x420 (2.40:1), 1456 kbps, 23,976 fps, 0,143 bpp
Аудио: русский / AC3 / 5.1 / 48 kHz / 448 kbps / |Дубляж|
Навигация по главам: есть
Релиз от:
General
Unique ID : 201356860423355407147831638139272383069 (0x977BEBB2F9F99F018C928FC9EACB4A5D)
Complete name : E:\Komatozniki.2017.RUS.BDRip.x264.-HELLYWOOD.mkv
Format : Matroska
Format version : Version 4 / Version 2
File size : 1.46 GiB
Duration : 1 h 49 min
Overall bit rate : 1 905 kb/s
Movie name : Flatliners (2017)
Encoded date : UTC 2018-03-05 17:49:33
Writing application : mkvmerge v5.9.0 ('On The Loose') built on Dec 15 2012 16:39:58
Writing library : libebml v1.3.0 + libmatroska v1.4.0

Video
ID : 1
Format : AVC
Format/Info : Advanced Video Codec
Format profile : High@L4.1
Format settings, CABAC : Yes
Format settings, ReFrames : 12 frames
Muxing mode : Header stripping
Codec ID : V_MPEG4/ISO/AVC
Duration : 1 h 49 min
Bit rate : 1 456 kb/s
Width : 1 008 pixels
Height : 420 pixels
Display aspect ratio : 2.40:1
Frame rate mode : Constant
Frame rate : 23.976 (24000/1001) FPS
Color space : YUV
Chroma subsampling : 4:2:0
Bit depth : 8 bits
Scan type : Progressive
Bits/(Pixel*Frame) : 0.143
Stream size : 1.09 GiB (74%)
Title : potroks
Writing library : x264 core 155 r2893M b00bcaf
Encoding settings : cabac=1 / ref=12 / deblock=1:-1:-1 / analyse=0x3:0x133 / me=umh / subme=11 / psy=1 / psy_rd=1.00:0.10 / mixed_ref=1 / me_range=48 / chroma_me=1 / trellis=2 / 8x8dct=1 / cqm=0 / deadzone=21,11 / fast_pskip=0 / chroma_qp_offset=-3 / threads=9 / lookahead_threads=2 / sliced_threads=0 / nr=0 / decimate=0 / interlaced=0 / bluray_compat=0 / constrained_intra=0 / bframes=12 / b_pyramid=2 / b_adapt=2 / b_bias=0 / direct=3 / weightb=1 / open_gop=0 / weightp=2 / keyint=240 / keyint_min=23 / scenecut=40 / intra_refresh=0 / rc_lookahead=100 / rc=2pass / mbtree=0 / bitrate=1456 / ratetol=1.0 / qcomp=0.70 / qpmin=0 / qpmax=69 / qpstep=4 / cplxblur=20.0 / qblur=0.5 / vbv_maxrate=52000 / vbv_bufsize=50000 / nal_hrd=none / filler=0 / ip_ratio=1.40 / pb_ratio=1.30 / aq=2:0.80
Language : English
Default : Yes
Forced : No

Audio
ID : 2
Format : AC-3
Format/Info : Audio Coding 3
Mode extension : CM (complete main)
Format settings, Endianness : Big
Muxing mode : Header stripping
Codec ID : A_AC3
Duration : 1 h 49 min
Bit rate mode : Constant
Bit rate : 448 kb/s
Channel(s) : 6 channels
Channel positions : Front: L C R, Side: L R, LFE
Sampling rate : 48.0 kHz
Frame rate : 31.250 FPS (1536 spf)
Compression mode : Lossy
Stream size : 352 MiB (24%)
Title : Dub | DD 5.1 @ 448 kbps - Blu-ray CEE
Language : Russian
Default : Yes
Forced : No

Text #1
ID : 3
Format : UTF-8
Codec ID : S_TEXT/UTF8
Codec ID/Info : UTF-8 Plain Text
Title : Forced
Language : Russian
Default : Yes
Forced : No

Text #2
ID : 4
Format : UTF-8
Codec ID : S_TEXT/UTF8
Codec ID/Info : UTF-8 Plain Text
Title : iTunes
Language : Russian
Default : No
Forced : No

Menu
00:00:00.000 : :00:00:00.000
00:05:48.557 : :00:05:48.557
00:11:21.097 : :00:11:21.097
00:18:01.205 : :00:18:01.205
00:26:41.600 : :00:26:41.600
00:35:10.734 : :00:35:10.734
00:42:31.382 : :00:42:31.382
00:48:10.971 : :00:48:10.971
00:55:32.621 : :00:55:32.621
01:03:49.993 : :01:03:49.993
01:09:43.261 : :01:09:43.262
01:16:20.868 : :01:16:20.868
01:24:18.011 : :01:24:18.011
01:30:00.186 : :01:30:00.186
01:36:06.094 : :01:36:06.094
01:41:54.692 : :01:41:54.692
pb.wtf



Скачать Коматозники через торрент http://i103.fastpic.ru/big/2018/0305/21/2f5cd040c2cc3b2fb18afb3711464621.png Скачать фильм Коматозники через торрент бесплантно в хорошем качестве Описание: Пятеро студентов-медиков, одержимых желанием узнать, что происходит с человеком после смерти, решаются на рискованный ... 8.2 10 5
Info! Золотая раздача, скачанное не засчитывается.
Торрент: Зарегистрирован [2018-03-05 18:26] · скачан: 342 раз
Статус: √ проверено
Размер: 1.46 GB
Как cкачать? Как скачать Коматозники через торрент | UTorrent

% Раздел Тема Автор DL S | L
Фильмы [HD 720p, 1080p] (Хороший звук DUB, MVO) [ 4.58 GB ] Коматозники / Flatliners [1990 BDRip 1080p HEVC ()] Мичман37 Скачать
1 | 0
Ultra HD (UHD: 2K, 4K, 8K) — видео сверхвысокой чёткости [ 20.77 GB ] Коматозники / Flatliners [2017 UHD WEBRip 2160p] - [] sheker187 Скачать
1 | 0
Фильмы (HD 720p, 1080p) (48-60 fps) [ 3.64 GB ] Коматозники / Flatliners [2017 BDRip 720p / 60 FPS Оригинал] Tiberiumsun69 Скачать
2 | 1
Фильмы [HD 720p, 1080p] (Хороший звук DUB, MVO) [ 6.36 GB ] Коматозники / Flatliners [2017 BDRip 720p] DUB [] bober100 Скачать
1 | 0
Фильмы 2017 [DVDrip, WEB-DLRip, HDrip] (DUB, MVO) [ 711 MB ] Коматозники / Flatliners [2017 HDRip BD "EUR"] coc900 Скачать
1 | 0
Фильмы (Blu-ray, BD-Remux, HDDVD) [ 21.12 GB ] Коматозники / Flatliners [2017 BD Remux 1080p] DUB [] bober100 Скачать
1 | 0
Фильмы [HD 720p, 1080p] (Хороший звук DUB, MVO) [ 11.89 GB ] Коматозники / Flatliners [2017 BDRip 1080p] DUB [] bober100 Скачать
2 | 0

28-11-2019 20:33  

Отключить всю рекламу на сайте

22-03-2018 12:22 Коматозники Скачать торрент  

оригинал получше будет.pb.wtf



    Дорогой пользователь! Огромная просьба, поблагодарите релизера, оцените раздачу и оставьте свои комментарий, если Вы скачали Коматозники через торрент бесплатно! Внесите свою лепту в развитие PiratBit!
    Комментировать посты могут только пользователи прошедшие не сложную регистрацию
    Показать сообщения:    

    Коматозники через торрент
    Скачать бесплатно Коматозники
    Коматозники скачать торрент
    Коматозники смотреть онлайн
    Cкачать фильм Коматозники бесплатно
    Коматозники скачать торрент в хорошем качестве
    Коматозники смотреть онлайн бесплатно в хорошем качестве


    Вы не можете начинать темы
    Вы не можете отвечать на сообщения
    Вы не можете редактировать свои сообщения
    Вы не можете удалять свои сообщения
    Вы не можете голосовать в опросах
    Вы не можете прикреплять файлы к сообщениям
    Вы можете скачивать файлы