Ссылка на приватное зеркало нашего сайта всего за 1$. Внимание количество ограничено!!!

2 сезон

iTunes

1 сезон

1

2 сезон

2 сезон

iTunes

1 сезон

RePack

30

Ultimate

ВАЖНО

ИГРА 18+

pack

RePack

MK11
pack

Забери бонус

RePack

jed

!!Акция!!

Alien_Rage

RePack

fifa19

RePack

Assassins Creed: Odyssey

RePack

NEED FOR SPEED™ PAYBACK

4 сезон

9 сезон

Бесстыжие 9 сезон

Все сериалы

все сериалы на PB.wtf

RePack

FAR CRY 5
  

Здесь и сейчас / Here and Now / Сезон: 1 / Серии: 1-10 из 10 (Ута Бризвитц, Алан Болл, Джереми Подесва) [2018, Драма, комедия, WEB-DLRip] [MVO] (Jaskier) pb.wtf

Здесь и сейчас через торрент pb.wtf

Размер: 6.84 GB | Добавлен: 2 года 5 мес. назад | Торрент скачан:5 раз
Скачать  

05-03-2018 21:03 Здесь и сейчас Скачать торрент  

Здесь и сейчас / Here and Now

Год выпуска: 2018
Страна: США
Жанр: Драма, комедия
Продолжительность: ~ 00:55:00
Перевод: Профессиональный (многоголосый закадровый) | Jaskier

Режиссёр: Ута Бризвитц, Алан Болл, Джереми Подесва

В ролях: Холли Хантер, Соси Бэйкон, Джеррика Хинтон, Рэймонд Ли, Тим Роббинс, Дэниэл Дзоватто, Марван Салама, Джо Уильямсон, Некар Задеган

Описание: История о многонациональной семье, которая живет в США: профессоре философии Грег Бишоп, его супруге-юристе Одри, их общем ребенке и трех приёмных детях — из Вьетнама, Колумбии и Сомали. За фасадом счастливого, прогрессивного семейства таится множество проблем, к которым со временем прибавляется ещё одна напасть — один из детей начинает наблюдать необъяснимые вещи, невидимые для других.



Качество: WEB-DLRip
Формат: AVI
Видео: XviD, ~ 1400 kbps, 720x400, 23,976 fps
Аудио 1: MP3, 48,0 КГц, 2 ch, 128 kbps - RUS
Аудио 2: MP3, 48,0 КГц, 2 ch, 128 kbps - ENG
Субтитры: отсутствуют
Общее
Формат                                   : AVI
Формат/Информация                        : Audio Video Interleave
Размер файла                             : 726 Мбайт
Продолжительность                        : 1 ч. 0 м.
Общий поток                              : 1670 Кбит/сек
Программа кодирования                    : VirtualDubMod 1.5.10.3 | www.virtualdub-fr.org || (build 2550/release)
Библиотека кодирования                   : VirtualDubMod build 2550/release

Видео
Идентификатор                            : 0
Формат                                   : MPEG-4 Visual
Профиль формата                          : Advanced Simple@L5
Параметр BVOP формата                    : 2
Параметр QPel формата                    : Нет
Параметр GMC формата                     : Без точки перехода
Параметр матрицы формата                 : Выборочная
Идентификатор кодека                     : XVID
Идентификатор кодека/Подсказка           : XviD
Продолжительность                        : 1 ч. 0 м.
Битрейт                                  : 1400 Кбит/сек
Ширина                                   : 720 пикселей
Высота                                   : 400 пикселей
Соотношение сторон                       : 16:9
Частота кадров                           : 23,976 (23976/1000) кадра/сек
Цветовое пространство                    : YUV
Субдискретизация насыщенности            : 4:2:0
Битовая глубина                          : 8 бит
Тип развёртки                            : Прогрессивная
Метод сжатия                             : С потерями
Бит/(Пиксели*Кадры)                      : 0.203
Размер потока                            : 609 Мбайт (84%)
Библиотека кодирования                   : XviD 73

Аудио #1
Идентификатор                            : 1
Формат                                   : MPEG Audio
Версия формата                           : Version 1
Профиль формата                          : Layer 3
Режим                                    : Joint stereo
Расширение режима                        : MS Stereo
Идентификатор кодека                     : 55
Идентификатор кодека/Подсказка           : MP3
Продолжительность                        : 1 ч. 0 м.
Вид битрейта                             : Постоянный
Битрейт                                  : 128 Кбит/сек
Каналы                                   : 2 канала
Частота                                  : 48,0 КГц
Метод сжатия                             : С потерями
Размер потока                            : 55,7 Мбайт (8%)
Выравнивание                             : Соединение по промежуткам
Продолжительность промежутка             : 42  мс. (1,00 видеокадр)
Время предзагрузки промежутка            : 504  мс.

Аудио #2
Идентификатор                            : 2
Формат                                   : MPEG Audio
Версия формата                           : Version 1
Профиль формата                          : Layer 3
Режим                                    : Joint stereo
Идентификатор кодека                     : 55
Идентификатор кодека/Подсказка           : MP3
Продолжительность                        : 1 ч. 0 м.
Вид битрейта                             : Постоянный
Битрейт                                  : 128 Кбит/сек
Каналы                                   : 2 канала
Частота                                  : 48,0 КГц
Метод сжатия                             : С потерями
Размер потока                            : 55,7 Мбайт (8%)
Выравнивание                             : Соединение по промежуткам
Продолжительность промежутка             : 42  мс. (1,00 видеокадр)
Время предзагрузки промежутка            : 504  мс.
скриншот  скриншот  скриншот  
Когда раздача ведётся путём добавления новых серий, при каждом добавлении создётся новый торрент. Чтобы начать докачку новой серии, пользователям необходимо сделать следующее:
(1) остановить скачивание,
(2) удалить старый торрент у себя из клиента (старые серии удалять не надо),
(3) скачать новый торрент и запустить его у себя в клиенте вместо старого, при этом указать клиенту путь в старую папку, куда и должно происходить скачивание новых серий.
Ваш клиент при этом должен произвести хеширование (проверку) старой папки (если не производит сам - помогите ему сделать это), и будет докачивать только те серии, которых у вас ещё нет. Старые серии при этом не удаляются, а продолжают раздаваться!
Eсли вы уже удалили старые серии, то предотвратить повторную закачку старых серий можно, отжав галочку в соответсвующих местах при запуске нового торрента. По возможности, желательно не удалять старые серии как можно дольше, чтобы релизёр не столько продолжал раздавать старые серии, а смог сконцентрироваться на новых.
pb.wtf



Скачать Здесь и сейчас через торрент http://i102.fastpic.ru/big/2018/0305/f2/55569657a6f27bc409f9ae503c6636f2.png Скачать фильм Здесь и сейчас через торрент бесплантно в хорошем качестве Описание: История о многонациональной семье, которая живет в США: профессоре философии Грег Бишоп, его супруге-юристе Одри, их общем ... 5 10 1
Торрент: Зарегистрирован [2018-06-08 17:03] · скачан: 5 раз
Статус: √ проверено
Размер: 6.84 GB
Как cкачать? Как скачать Здесь и сейчас через торрент | qTorrent

% Раздел Тема Автор DL S | L
Зарубежные сериалы [ 10.43 GB ] Здесь и сейчас / Here and Now / Сезон: 1 / Серии: 1-10 из 10 [2018 WEB-DL 720p] DVO [SunshineStudio] bober100 Скачать
1 | 0
Зарубежные сериалы [ 6.79 GB ] Здесь и сейчас / Here and Now / Сезон: 1 / Серии: 1-10 из 10 [2018 WEB-DLRip] DVO [SunshineStudio] bober100 Скачать
1 | 0
Зарубежные сериалы [ 42.02 GB ] Здесь и сейчас / Here and Now / Сезон: 1 / Серии: 1-10 из 10 [2018 WEB-DL 1080p] [MVO] killermax2013 Скачать
1 | 0
Зарубежные сериалы [ 13.52 GB ] Здесь и сейчас / Here and Now / Сезон: 1 / Серии: 1-10 из 10 [2018 WEB-DL 720p] [MVO] killermax2013 Скачать
1 | 0
Зарубежные сериалы [ 4.44 GB ] Здесь и сейчас / Here and Now / Сезон: 1 / Серии: 1-3 из 10 [2018 WEB-DL 720p] MVO [Амедиа] bober100 Скачать
1 | 0
Зарубежные сериалы [ 2.1 GB ] Здесь и сейчас / Here and Now / Сезон: 1 / Серии: 1-3 из 10 [2018 WEB-DLRip] MVO [Амедиа] bober100 Скачать
1 | 0

28-11-2019 20:33  

Отключить всю рекламу на сайте

    Дорогой пользователь! Огромная просьба, поблагодарите релизера, оцените раздачу и оставьте свои комментарий, если Вы скачали Здесь и сейчас через торрент бесплатно! Внесите свою лепту в развитие PiratBit!
    Комментировать посты могут только пользователи прошедшие не сложную регистрацию
    Показать сообщения:    

    Здесь и сейчас через торрент
    Скачать бесплатно Здесь и сейчас
    Здесь и сейчас скачать торрент
    Здесь и сейчас смотреть онлайн
    Cкачать фильм Здесь и сейчас бесплатно
    Здесь и сейчас скачать торрент в хорошем качестве
    Здесь и сейчас смотреть онлайн бесплатно в хорошем качестве


    Вы не можете начинать темы
    Вы не можете отвечать на сообщения
    Вы не можете редактировать свои сообщения
    Вы не можете удалять свои сообщения
    Вы не можете голосовать в опросах
    Вы не можете прикреплять файлы к сообщениям
    Вы можете скачивать файлы