Ссылка на приватное зеркало нашего сайта всего за 1$. Внимание количество ограничено!!!

2 сезон

iTunes

1 сезон

1

2 сезон

2 сезон

iTunes

1 сезон

RePack

30

Ultimate

ВАЖНО

ИГРА 18+

pack

RePack

MK11
pack

Забери бонус

RePack

jed

!!Акция!!

Alien_Rage

RePack

fifa19

RePack

Assassins Creed: Odyssey

RePack

NEED FOR SPEED™ PAYBACK

4 сезон

9 сезон

Бесстыжие 9 сезон

Все сериалы

все сериалы на PB.wtf

RePack

FAR CRY 5
  

Здесь и сейчас / Here and Now / Сезон: 1 / Серии: 1-10 из 10 (Ута Бризвитц, Алан Болл, Джереми Подесва) [2018, Драма, комедия, WEB-DL 720p] [MVO] (Jaskier) pb.wtf

Здесь и сейчас через торрент pb.wtf

Размер: 13.52 GB | Добавлен: 2 года 5 мес. назад | Торрент скачан:12 раз
Скачать  

05-03-2018 21:07 Здесь и сейчас Скачать торрент  

Здесь и сейчас / Here and Now

Год выпуска: 2018
Страна: США
Жанр: Драма, комедия
Продолжительность: ~ 00:55:00
Перевод: Профессиональный (многоголосый закадровый) | Jaskier

Режиссёр: Ута Бризвитц, Алан Болл, Джереми Подесва

В ролях: Холли Хантер, Соси Бэйкон, Джеррика Хинтон, Рэймонд Ли, Тим Роббинс, Дэниэл Дзоватто, Марван Салама, Джо Уильямсон, Некар Задеган

Описание: История о многонациональной семье, которая живет в США: профессоре философии Грег Бишоп, его супруге-юристе Одри, их общем ребенке и трех приёмных детях — из Вьетнама, Колумбии и Сомали. За фасадом счастливого, прогрессивного семейства таится множество проблем, к которым со временем прибавляется ещё одна напасть — один из детей начинает наблюдать необъяснимые вещи, невидимые для других.



Качество: WEB-DL 720p
Формат: MKV
Видео: X264, ~ 2500 kbps, 1280x720 (16:9), 23,976 fps
Аудио 1: AC3, 48,0 КГц, 6 ch, 384 kbps - RUS
Аудио 2: AC3, 48,0 КГц, 6 ch, 384 kbps - ENG
Субтитры: отсутствуют
Общее
Уникальный идентификатор                 : 191223518848501207378904017229472014978 (0x8FDC4F62DAA0A9799D403895AB8B2282)
Формат                                   : Matroska
Версия формата                           : Version 2
Размер файла                             : 1,44 Гбайт
Продолжительность                        : 1 ч. 0 м.
Режим общего битрейта                    : Переменный
Общий поток                              : 3386 Кбит/сек
Дата кодирования                         : UTC 2018-03-05 19:31:49
Программа кодирования                    : mkvmerge v5.8.0 ('No Sleep / Pillow') built on Sep  2 2012 15:37:04
Библиотека кодирования                   : libebml v1.2.3 + libmatroska v1.3.0

Видео
Идентификатор                            : 1
Формат                                   : AVC
Формат/Информация                        : Advanced Video Codec
Профиль формата                          : High@L3.1
Параметр CABAC формата                   : Да
Параметр ReFrames формата                : 5 кадров
Идентификатор кодека                     : V_MPEG4/ISO/AVC
Продолжительность                        : 1 ч. 0 м.
Вид битрейта                             : Переменный
Битрейт                                  : 2551 Кбит/сек
Максимальный битрейт                     : 4500 Кбит/сек
Ширина                                   : 1280 пикселей
Высота                                   : 720 пикселей
Соотношение сторон                       : 16:9
Режим частоты кадров                     : Постоянный
Частота кадров                           : 23,976 (24000/1001) кадра/сек
Цветовое пространство                    : YUV
Субдискретизация насыщенности            : 4:2:0
Битовая глубина                          : 8 бит
Тип развёртки                            : Прогрессивная
Бит/(Пиксели*Кадры)                      : 0.115
Размер потока                            : 1,08 Гбайт (75%)
Default                                  : Да
Forced                                   : Нет
Цветовой диапазон                        : Limited
Основные цвета                           : BT.709
Характеристики трансфера                 : BT.709
Коэффициенты матрицы                     : BT.709

Аудио #1
Идентификатор                            : 2
Формат                                   : AC-3
Формат/Информация                        : Audio Coding 3
Расширение режима                        : CM (complete main)
Параметр Endianness формата              : Big
Идентификатор кодека                     : A_AC3
Продолжительность                        : 1 ч. 0 м.
Вид битрейта                             : Постоянный
Битрейт                                  : 384 Кбит/сек
Каналы                                   : 6 каналов
Расположение каналов                     : Front: L C R, Side: L R, LFE
Частота                                  : 48,0 КГц
Частота кадров                           : 31,250 кадров/сек (1536 spf)
Метод сжатия                             : С потерями
Размер потока                            : 167 Мбайт (11%)
Язык                                     : Russian
Default                                  : Да
Forced                                   : Нет

Аудио #2
Идентификатор                            : 3
Формат                                   : AC-3
Формат/Информация                        : Audio Coding 3
Расширение режима                        : CM (complete main)
Параметр Endianness формата              : Big
Идентификатор кодека                     : A_AC3
Продолжительность                        : 1 ч. 0 м.
Вид битрейта                             : Постоянный
Битрейт                                  : 384 Кбит/сек
Каналы                                   : 6 каналов
Расположение каналов                     : Front: L C R, Side: L R, LFE
Частота                                  : 48,0 КГц
Частота кадров                           : 31,250 кадров/сек (1536 spf)
Метод сжатия                             : С потерями
Размер потока                            : 167 Мбайт (11%)
Язык                                     : English
Default                                  : Нет
Forced                                   : Нет
скриншот  скриншот  скриншот  
Когда раздача ведётся путём добавления новых серий, при каждом добавлении создётся новый торрент. Чтобы начать докачку новой серии, пользователям необходимо сделать следующее:
(1) остановить скачивание,
(2) удалить старый торрент у себя из клиента (старые серии удалять не надо),
(3) скачать новый торрент и запустить его у себя в клиенте вместо старого, при этом указать клиенту путь в старую папку, куда и должно происходить скачивание новых серий.
Ваш клиент при этом должен произвести хеширование (проверку) старой папки (если не производит сам - помогите ему сделать это), и будет докачивать только те серии, которых у вас ещё нет. Старые серии при этом не удаляются, а продолжают раздаваться!
Eсли вы уже удалили старые серии, то предотвратить повторную закачку старых серий можно, отжав галочку в соответсвующих местах при запуске нового торрента. По возможности, желательно не удалять старые серии как можно дольше, чтобы релизёр не столько продолжал раздавать старые серии, а смог сконцентрироваться на новых.
pb.wtf



Скачать Здесь и сейчас через торрент http://i102.fastpic.ru/big/2018/0305/f2/55569657a6f27bc409f9ae503c6636f2.png Скачать фильм Здесь и сейчас через торрент бесплантно в хорошем качестве Описание: История о многонациональной семье, которая живет в США: профессоре философии Грег Бишоп, его супруге-юристе Одри, их общем ... 10 10 1
Торрент: Зарегистрирован [2018-06-08 17:06] · скачан: 12 раз
Статус: √ проверено
Размер: 13.52 GB
Как cкачать? Как скачать Здесь и сейчас через торрент | qTorrent

% Раздел Тема Автор DL S | L
Зарубежные сериалы [ 10.43 GB ] Здесь и сейчас / Here and Now / Сезон: 1 / Серии: 1-10 из 10 [2018 WEB-DL 720p] DVO [SunshineStudio] bober100 Скачать
1 | 0
Зарубежные сериалы [ 6.79 GB ] Здесь и сейчас / Here and Now / Сезон: 1 / Серии: 1-10 из 10 [2018 WEB-DLRip] DVO [SunshineStudio] bober100 Скачать
1 | 0
Зарубежные сериалы [ 42.02 GB ] Здесь и сейчас / Here and Now / Сезон: 1 / Серии: 1-10 из 10 [2018 WEB-DL 1080p] [MVO] killermax2013 Скачать
1 | 0
Зарубежные сериалы [ 6.84 GB ] Здесь и сейчас / Here and Now / Сезон: 1 / Серии: 1-10 из 10 [2018 WEB-DLRip] [MVO] killermax2013 Скачать
1 | 0
Зарубежные сериалы [ 4.44 GB ] Здесь и сейчас / Here and Now / Сезон: 1 / Серии: 1-3 из 10 [2018 WEB-DL 720p] MVO [Амедиа] bober100 Скачать
1 | 0
Зарубежные сериалы [ 2.1 GB ] Здесь и сейчас / Here and Now / Сезон: 1 / Серии: 1-3 из 10 [2018 WEB-DLRip] MVO [Амедиа] bober100 Скачать
1 | 0

28-11-2019 20:33  

Отключить всю рекламу на сайте

    Дорогой пользователь! Огромная просьба, поблагодарите релизера, оцените раздачу и оставьте свои комментарий, если Вы скачали Здесь и сейчас через торрент бесплатно! Внесите свою лепту в развитие PiratBit!
    Комментировать посты могут только пользователи прошедшие не сложную регистрацию
    Показать сообщения:    

    Здесь и сейчас через торрент
    Скачать бесплатно Здесь и сейчас
    Здесь и сейчас скачать торрент
    Здесь и сейчас смотреть онлайн
    Cкачать фильм Здесь и сейчас бесплатно
    Здесь и сейчас скачать торрент в хорошем качестве
    Здесь и сейчас смотреть онлайн бесплатно в хорошем качестве


    Вы не можете начинать темы
    Вы не можете отвечать на сообщения
    Вы не можете редактировать свои сообщения
    Вы не можете удалять свои сообщения
    Вы не можете голосовать в опросах
    Вы не можете прикреплять файлы к сообщениям
    Вы можете скачивать файлы