2 сезон

iTunes

MVO

1

2 сезон

iTunes

iTunes

1 сезон

RePack

30

Ultimate

ВАЖНО

ИГРА 18+

pack

RePack

MK11
pack

Легкие деньги

RePack

jed

RePack

fifa19

RePack

RDR2

RePack

NEED FOR SPEED™ PAYBACK

4 сезон

9 сезон

Бесстыжие 9 сезон

Все сериалы

все сериалы на PB.wtf

RePack

FAR CRY 5

Anonymous, добрый вечер, мы не успеваем собрать деньги на оплату серверов за декабрь и январь, помогите нам пожалуйста в это трудное время. В качестве благодарности мы отключим Вам всю рекламу на сайте (укажите свой ник в строку Ваше имя)!

×
  
Magnet ссылка

Максимальный удар / Maximum Impact (Анджей Бартковяк) [2017 г., Боевик, комедия, BDRip-AVC, Дублированный] Лицензия - ExKinoRay pb.wtf

Максимальный удар через торрент pb.wtf

Размер: 2.47 GB | Добавлен: 2 года 10 мес. назад | Торрент скачан:319 раз
Скачать  

06-03-2018 12:55 Максимальный удар Скачать торрент  

Информация о фильме
Название: Максимальный удар
Оригинальное название: Maximum Impact
Год выпуска: 2017
Жанр: Боевик, комедия
Страна: Россия, США
Студия: Hollywood Storm, Czar Pictures
Продолжительность: 01:49:45
Перевод: Дублированный | Лицензия
Режиссер: Анджей Бартковяк
В ролях: Александр Невский, Дэнни Трэхо, Том Арнольд, Келли Ху, Марк Дакаскос, Уильям Болдуин, Альфонсо МакОли, Маттиас Хьюз, Кит Пауэрс, Евгений Стычкин, Бай Линь, Максим Виторган, Аристарх Венес, Эрик Робертс, Лилия Мэй

Описание:
Госсекретарь США тайно прибывает на секретный саммит в Москве, чтобы уладить напряженность российско-американских отношений. Однако мир оказывается перед угрозой Третьей мировой войны, когда лидер международной преступной группировки организовывает покушение на госсекретаря и похищает его внучку. ФСБ и ЦРУ объединяются, чтобы спасти человечество.



Файл
Формат: MKV
Качество: BDRip-AVC
Видео: MPEG-4 AVC, 1024x428 (2.40:1), 24.000 fps, 2781 Kbps, 0.264 bit/pixel
Аудио: 48 kHz, AC3, 3/2 (L,C,R,l,r) + LFE ch, ~448 kbps avg |Дубляж|
General
Unique ID : 235021285190700834849725050270806186407 (0xB0CF73FC8203BA69A001CE124F9819A7)
Complete name : D:\Max.Impact.2017.BDRip.AVC.ExKinoRay.mkv
Format : Matroska
Format version : Version 2
File size : 2.47 GiB
Duration : 1 h 49 min
Overall bit rate : 3 226 kb/s
Movie name : Maximum Impact (2017) from ExKinoRay
Encoded date : UTC 2018-03-06 12:18:23
Writing application : mkvmerge v5.6.0 ('Kenya Kane') built on May 27 2012 16:44:04
Writing library : libebml v1.2.3 + libmatroska v1.3.0

Video
ID : 1
Format : AVC
Format/Info : Advanced Video Codec
Format profile : High@L4.1
Format settings, CABAC : Yes
Format settings, ReFrames : 12 frames
Codec ID : V_MPEG4/ISO/AVC
Duration : 1 h 49 min
Bit rate : 2 781 kb/s
Width : 1 024 pixels
Height : 428 pixels
Display aspect ratio : 2.40:1
Frame rate mode : Constant
Frame rate : 24.000 FPS
Color space : YUV
Chroma subsampling : 4:2:0
Bit depth : 8 bits
Scan type : Progressive
Bits/(Pixel*Frame) : 0.264
Stream size : 2.08 GiB (84%)
Title : Enigma
Writing library : x264 core 152 r2851 ba24899
Encoding settings : cabac=1 / ref=12 / deblock=1:-2:-2 / analyse=0x3:0x113 / me=umh / subme=10 / psy=1 / psy_rd=1.05:0.10 / mixed_ref=1 / me_range=32 / chroma_me=1 / trellis=2 / 8x8dct=1 / cqm=0 / deadzone=21,11 / fast_pskip=0 / chroma_qp_offset=-3 / threads=12 / lookahead_threads=3 / sliced_threads=0 / nr=0 / decimate=0 / interlaced=0 / bluray_compat=0 / constrained_intra=0 / bframes=12 / b_pyramid=2 / b_adapt=2 / b_bias=0 / direct=3 / weightb=1 / open_gop=0 / weightp=2 / keyint=240 / keyint_min=24 / scenecut=40 / intra_refresh=0 / rc_lookahead=40 / rc=2pass / mbtree=0 / bitrate=2781 / ratetol=1.0 / qcomp=0.60 / qpmin=0 / qpmax=51 / qpstep=4 / cplxblur=20.0 / qblur=0.5 / vbv_maxrate=50000 / vbv_bufsize=62500 / nal_hrd=none / filler=0 / ip_ratio=1.40 / pb_ratio=1.30 / aq=3:0.90
Language : English
Default : Yes
Forced : No
Color range : Limited
Color primaries : BT.709
Transfer characteristics : BT.709
Matrix coefficients : BT.709

Audio
ID : 2
Format : AC-3
Format/Info : Audio Coding 3
Mode extension : CM (complete main)
Format settings, Endianness : Big
Codec ID : A_AC3
Duration : 1 h 49 min
Bit rate mode : Constant
Bit rate : 448 kb/s
Channel(s) : 6 channels
Channel positions : Front: L C R, Side: L R, LFE
Sampling rate : 48.0 kHz
Frame rate : 31.250 FPS (1536 spf)
Compression mode : Lossy
Stream size : 352 MiB (14%)
Title : Dub (Blu-Ray Rus)
Language : Russian
Default : Yes
Forced : No

Menu
00:00:00.000 : :Chapter 01
00:00:29.000 : :Chapter 02
00:10:11.333 : :Chapter 03
00:24:28.250 : :Chapter 04
00:36:30.666 : :Chapter 05
00:51:38.708 : :Chapter 06
01:06:48.500 : :Chapter 07
01:17:28.625 : :Chapter 08
01:31:26.750 : :Chapter 09
Релиз от:

Автор релиза: pb.wtf



Скачать Максимальный удар через торрент http://i103.fastpic.ru/big/2017/1224/2a/868394a490cd77add915abe8cfb8bc2a.jpg Скачать фильм Максимальный удар через торрент бесплантно в хорошем качестве Описание: Госсекретарь США тайно прибывает на секретный саммит в Москве, чтобы уладить напряженность российско-американских отношений. ... 7 10 19
Info! Золотая раздача, скачанное не засчитывается.
Торрент: Зарегистрирован [2018-03-06 12:55] · скачан: 319 раз
Статус: √ проверено
Размер: 2.47 GB
Как cкачать? Как скачать Максимальный удар через торрент | UTorrent

28-11-2019 20:33  

Отключить всю рекламу на сайте

06-03-2018 14:08 Максимальный удар Скачать торрент  

КУРИЦЫН-ОВНО!!pb.wtf



06-03-2018 14:10 Максимальный удар Скачать торрент  

на любителя ))pb.wtf



06-03-2018 15:48 Максимальный удар Скачать торрент  

обзоры BadComidean'a смотрят народу в разы больше чем сами "фильмы" курицына ... рекомендую обзорpb.wtf



06-03-2018 16:13 Максимальный удар Скачать торрент  

Я еще черную пантеру за палевный хромокей ругал. Тут же он аж привкусом на языке сидит >_<
Желающим поглядеть советую обзор бэдкомедиана посмотреть на это чудо. Бажен божит \о/
Автору спс о/pb.wtf



06-03-2018 17:35 Максимальный удар Скачать торрент  

Просто оооооооооооочень тупой фильмpb.wtf



07-03-2018 14:14 Максимальный удар Скачать торрент  

Уот так Уотpb.wtf



    Дорогой пользователь! Огромная просьба, поблагодарите релизера, оцените раздачу и оставьте свои комментарий, если Вы скачали Максимальный удар через торрент бесплатно! Внесите свою лепту в развитие PiratBit!
    Комментировать посты могут только пользователи прошедшие не сложную регистрацию
    Показать сообщения:    

    Максимальный удар через торрент
    Скачать бесплатно Максимальный удар
    Максимальный удар скачать торрент
    Максимальный удар смотреть онлайн
    Cкачать фильм Максимальный удар бесплатно
    Максимальный удар скачать торрент в хорошем качестве
    Максимальный удар смотреть онлайн бесплатно в хорошем качестве


    Вы не можете начинать темы
    Вы не можете отвечать на сообщения
    Вы не можете редактировать свои сообщения
    Вы не можете удалять свои сообщения
    Вы не можете голосовать в опросах
    Вы не можете прикреплять файлы к сообщениям
    Вы можете скачивать файлы