MEGA SALE -50% FORZA HORIZON 4 ULTIMATE+ВСЕ DLC+ОНЛАЙН всего за 599р. 299 руб. (супер цена). Внимание количество ограничено!!!

iTunes

1+1

iTunes

мы

iTunes

1

iTunes

Чернобыль

iTunes

Ральф против интернета

Лицензия

ПШазам

Лицензия

Игра престолов

Лицензия

30
pack

ВАЖНО

!!Акция!!

Alien_RageХит недели

RePack

Resident Evil 21

ИГРА 18+

pack

RePack

Metro:Exodus

!!Акция!!

Alien_Rage

RePack

fifa19

RePack

Assassins Creed: Odyssey

RePack

NEED FOR SPEED™ PAYBACK

3 сезон

9 сезон

Бесстыжие 9 сезон

Все сериалы

все сериалы на PB.wtf

RePack

FAR CRY 5
Ребята, катастрофически не хватает 7730р. для оплаты серверов за АВГУСТ (всвязи с блокировками трафик упал в 3 раза), 1-2р., выручайте.
  

Повелитель приливов / The Prince of Tides (Барбра Стрейзанд) [1991 г., драма, мелодрама, WEBRip] DVO pb.wtf

Повелитель приливов через торрент pb.wtf

Раздают: 1 [ 0 KB/s ]
Размер: 2.18 GB | Добавлен: 1 год 6 мес. назад | Торрент скачан:10 раз
Скачать  

06-03-2018 17:32 Повелитель приливов Скачать торрент  

Повелитель приливов / The Prince of Tides
Год выпуска: 1991
Страна: США
Жанр: драма, мелодрама
Продолжительность: 02:11:48
Перевод: Профессиональный (двухголосый)
Тип релиза: Amazon

Режиссер: Барбра Стрейзанд

rating

В ролях: Ник Нолти, Барбра Стрейзанд, Блайт Дэннер, Кейт Неллиган, Йерун Краббе, Мелинда Диллон, Джордж Карлин, Джейсон Гулд, Брэд Салливан, Мэгги Колье, Линдсэй Рэй, Бобби Фэйн, Тиффани Жан Дэвис, Нэнси Мур Этчисон, Кики Рунян, Грэйсон Фрике, Райан Ньюман, Крис Стейси, Милтон Кларк мл., Бонни Джонсон

Описание: Жизнь Тома Винго состоит из одних разочарований: он несчастлив в браке, лишен работы и надежды на будущее. К этому прибавились переживания за родную сестру, которая во второй раз пыталась покончить жизнь самоубийством. Том обращается к ее психиатру Сьюзан, и неожиданно сам становится пациентом. Чтобы спасти сестру, он вынужден раскрыть самые мрачные страницы их детства. Но ни один врач не сможет избавить Тома от страшных воспоминаний и заглушить его боль. Это под силу только женщине и ее любви, которая побеждает страх и возвращает утраченные надежды.

Качество: WEBRip
Формат: AVI
Видео: XviD, 1970 Кбит/с, 720x400, 23.976 Кадр/с
Аудио #1: AC3, 2 ch, 192 Кбит/с | Русский
Аудио #2: AC3, 2 ch, 192 Кбит/с | Aнглийский
Релиз от: Koenig
скриншот   скриншот   скриншот   скриншот   скриншот   скриншот  

Общее
Полное имя : The.Prince.Of.Tides.1991.WEBRip.avi
Формат : AVI
Формат/Информация : Audio Video Interleave
Профиль формата : OpenDML
Размер файла : 2,18 Гбайт
Продолжительность : 2 ч. 11 м.
Общий поток : 2372 Кбит/сек
Программа кодирования : VirtualDubMod 1.5.10.2 (build 2540/release)
Библиотека кодирования : VirtualDubMod build 2540/release

Видео
Идентификатор : 0
Формат : MPEG-4 Visual
Профиль формата : Advanced Simple@L5
Параметр BVOP формата : 1
Параметр QPel формата : Нет
Параметр GMC формата : Без точки перехода
Параметр матрицы формата : Выборочная
Идентификатор кодека : XVID
Идентификатор кодека/Подсказка : XviD
Продолжительность : 2 ч. 11 м.
Битрейт : 1970 Кбит/сек
Ширина : 720 пикселей
Высота : 400 пикселей
Соотношение сторон : 16:9
Частота кадров : 23,976 (24000/1001) кадра/сек
Цветовое пространство : YUV
Субдискретизация насыщенности : 4:2:0
Битовая глубина : 8 бит
Тип развёртки : Прогрессивная
Метод сжатия : С потерями
Бит/(Пиксели*Кадры) : 0.285
Размер потока : 1,81 Гбайт (83%)
Библиотека кодирования : XviD 65

Аудио #1
Идентификатор : 1
Формат : AC-3
Формат/Информация : Audio Coding 3
Параметр Endianness формата : Big
Идентификатор кодека : 2000
Продолжительность : 2 ч. 11 м.
Вид битрейта : Постоянный
Битрейт : 192 Кбит/сек
Каналы : 2 канала
Расположение каналов : Front: L R
Частота : 48,0 КГц
Частота кадров : 31,250 кадров/сек (1536 spf)
Битовая глубина : 16 бит
Метод сжатия : С потерями
Размер потока : 181 Мбайт (8%)
Выравнивание : Разделение по промежуткам
Продолжительность промежутка : 42 мс. (1,00 видеокадр)
Время предзагрузки промежутка : 500 мс.
ServiceKind/String : Complete Main

Аудио #2
Идентификатор : 2
Формат : AC-3
Формат/Информация : Audio Coding 3
Параметр Endianness формата : Big
Идентификатор кодека : 2000
Продолжительность : 2 ч. 11 м.
Вид битрейта : Постоянный
Битрейт : 192 Кбит/сек
Каналы : 2 канала
Расположение каналов : Front: L R
Частота : 48,0 КГц
Частота кадров : 31,250 кадров/сек (1536 spf)
Битовая глубина : 16 бит
Метод сжатия : С потерями
Размер потока : 181 Мбайт (8%)
Выравнивание : Разделение по промежуткам
Продолжительность промежутка : 42 мс. (1,00 видеокадр)
Время предзагрузки промежутка : 500 мс.
ServiceKind/String : Complete Main

pb.wtf



Скачать Повелитель приливов через торрент http://img12.lostpic.net/2018/03/06/e43b33532066304c8efafc76ff210866.jpg Скачать фильм Повелитель приливов через торрент бесплантно в хорошем качестве Описание: Жизнь Тома Винго состоит из одних разочарований: он несчастлив в браке, лишен работы и надежды на будущее. К этому прибавились ... 5 10 1
Торрент: Зарегистрирован [2018-03-06 17:32] · скачан: 10 раз
Статус: √ проверено
Размер: 2.18 GB
Как cкачать? Как скачать Повелитель приливов через торрент | qTorrent

% Раздел Тема Автор DL S | L
Фильмы (WEB-DL 720p, 1080p) [ 7.76 GB ] Повелитель приливов / The Prince Of Tides [1991 WEB-DLRip 720p] Dub + DVO + 2xAVO - KORSAR kisa1980 Скачать
1 | 0


>> Регистрируемся здесь <<






Отзывы и комментарии о схеме читаем и пишем здесь: ---> Отзывы и комментарии о схеме

Новые благодарочки в телеграм довольных пользователей:
скриншот   скриншот   скриншот   скриншот   скриншот
    Дорогой пользователь! Огромная просьба, поблагодарите релизера, оцените раздачу и оставьте свои комментарий, если Вы скачали Повелитель приливов через торрент бесплатно! Внесите свою лепту в развитие PiratBit!
    Комментировать посты могут только пользователи прошедшие не сложную регистрацию
    Показать сообщения:    

    Повелитель приливов через торрент
    Скачать бесплатно Повелитель приливов
    Повелитель приливов скачать торрент
    Повелитель приливов смотреть онлайн
    Cкачать фильм Повелитель приливов бесплатно
    Повелитель приливов скачать торрент в хорошем качестве
    Повелитель приливов смотреть онлайн бесплатно в хорошем качестве


    Вы не можете начинать темы
    Вы не можете отвечать на сообщения
    Вы не можете редактировать свои сообщения
    Вы не можете удалять свои сообщения
    Вы не можете голосовать в опросах
    Вы не можете прикреплять файлы к сообщениям
    Вы можете скачивать файлы