2 сезон

iTunes

WEBRip

1

2 сезон

iTunes

1 сезон

1 сезон

RePack

30

Новинка

ВАЖНО

ИГРА 18+

pack

RePack

MK11
pack

Легкие деньги

RePack

jed

RePack

fifa19

RePack

RDR2

RePack

NEED FOR SPEED™ PAYBACK

4 сезон

9 сезон

Бесстыжие 9 сезон

Все сериалы

все сериалы на PB.wtf

RePack

FAR CRY 5

Anonymous, добрый день, мы не успеваем собрать деньги на оплату серверов за февраль, помогите нам пожалуйста в это трудное время. В качестве благодарности мы отключим Вам всю рекламу на сайте (укажите свой ник в строку Ваше имя)!

×
  
Magnet ссылка

Кёр-оглы (Гусейн Сеид-заде) [1960, СССР, военный, биография, история, VHSRip от AVP Studio] pb.wtf

Кёр-оглы через торрент pb.wtf

Размер: 1.09 GB | Добавлен: 3 года назад | Торрент скачан:9 раз
Скачать  

07-03-2018 09:15 Кёр-оглы Скачать торрент  

Кёр-оглы
Страна: СССР
Производство: Азербайджанфильм

Жанр: военный, биография, история
Год выпуска: 1960
Продолжительность: 01:32:59

Перевод: Не требуется
Cубтитры: нет
Оригинальная аудиодорожка: русский

Режиссер: Гусейн Сеид-заде

В ролях:
Афрасияб Мамедов, Лейла Бадирбейли (Джаванширова), Агададаш Курбанов, Исмаил Дагестанлы, Марзия Давудова, Али Курбанов, Тамилла Агамирова, Мовсун Санани, Мамедсадых Нуриев, Атамоглан Рзаев, Алиага Агаев, Мухтар Маниев, Салман Дадашев, Мелик Дадашев, М. Фарзалиев, Гиви Тохадзе, Аладдин Аббасов...
Об актёрах подробней

Описание:
Неприступная крепость стоит на вершине, её охраняют вооружённые стражники. Каждый день в окно красавицы Нигяр, дочери хана, влетает стрела и приносит цветок от любимого, конюха Кёр-оглы. Когда-то он спас девушку от когтей разъярённой тигрицы. С той поры они полюбили друг друга.

Исходник: S-VHS
Качество видео: VHSRip
Формат видео: AVI

Видео: 704x400 (16:9), 25,000 кадров/сек, XviD ~ 1477 kbps avg, 0.210 bit/pixel
Аудио: 48 kHz, Dolby Digital AC3 2.0, 192 kbps

Раздача от:
Общее
Полное имя : Keor-ogly.1960.VHSRip_[New-team]_by_AVP_Studio.avi
Формат : AVI
Формат/Информация : Audio Video Interleave
Размер файла : 1,09 Гбайт
Продолжительность : 1 ч. 32 м.
Общий поток : 1680 Кбит/сек

Видео
Идентификатор : 0
Формат : MPEG-4 Visual
Профиль формата : Advanced Simple@L5
Настройки формата : BVOP1 / Custom Matrix
Параметр BVOP формата : 1
Параметр QPel формата : Нет
Параметр GMC формата : Без точки перехода
Параметр матрицы формата : Выборочная
Идентификатор кодека : XVID
Идентификатор кодека/Подсказка : XviD
Продолжительность : 1 ч. 32 м.
Битрейт : 1477 Кбит/сек
Ширина : 704 пикселя
Высота : 400 пикселей
Соотношение сторон : 16:9
Частота кадров : 25,000 кадров/сек
Цветовое пространство : YUV
Субдискретизация насыщенности : 4:2:0
Битовая глубина : 8 бит
Тип развёртки : Прогрессивная
Метод сжатия : С потерями
Бит/(Пиксели*Кадры) : 0.210
Размер потока : 982 Мбайт (88%)
Библиотека кодирования : XviD 73

Аудио
Идентификатор : 1
Формат : AC-3
Формат/Информация : Audio Coding 3
Идентификатор кодека : 2000
Продолжительность : 1 ч. 32 м.
Вид битрейта : Постоянный
Битрейт : 192 Кбит/сек
Каналы : 2 канала
Расположение каналов : Front: L R
Частота : 48,0 КГц
Частота кадров : 31,250 кадров/сек (1536 SPF)
Битовая глубина : 16 бит
Метод сжатия : С потерями
Размер потока : 128 Мбайт (11%)
Выравнивание : Соединение по промежуткам
Продолжительность промежутка : 32 мс. (0,80 видеокадр)
pb.wtf



Скачать Кёр-оглы через торрент http://picplus.ru/img/1803/07/03cd9450.png Скачать фильм Кёр-оглы через торрент бесплантно в хорошем качестве Описание:Неприступная крепость стоит на вершине, её охраняют вооружённые стражники. Каждый день в окно красавицы Нигяр, дочери хана, ... 5 10 1
Info! Золотая раздача, скачанное не засчитывается.
Торрент: Зарегистрирован [2018-03-07 09:15] · скачан: 9 раз
Статус: √ проверено
Размер: 1.09 GB
Как cкачать? Как скачать Кёр-оглы через торрент | UTorrent

% Раздел Тема Автор DL S | L
Кино СССР [ 1.09 GB ] Кёр-оглы [1960 СССР военный биография история VHSRip-AVC от AVP Studio] AVP Studio Скачать
1 | 0

28-11-2019 20:33  

Отключить всю рекламу на сайте


    Дорогой пользователь! Огромная просьба, поблагодарите релизера, оцените раздачу и оставьте свои комментарий, если Вы скачали Кёр-оглы через торрент бесплатно! Внесите свою лепту в развитие PiratBit!
    Комментировать посты могут только пользователи прошедшие не сложную регистрацию
    Показать сообщения:    

    Кёр-оглы через торрент
    Скачать бесплатно Кёр-оглы
    Кёр-оглы скачать торрент
    Кёр-оглы смотреть онлайн
    Cкачать фильм Кёр-оглы бесплатно
    Кёр-оглы скачать торрент в хорошем качестве
    Кёр-оглы смотреть онлайн бесплатно в хорошем качестве


    Вы не можете начинать темы
    Вы не можете отвечать на сообщения
    Вы не можете редактировать свои сообщения
    Вы не можете удалять свои сообщения
    Вы не можете голосовать в опросах
    Вы не можете прикреплять файлы к сообщениям
    Вы можете скачивать файлы