>

5.6

iTunes

6.1

MVO

5.7

MVO

1

7.4

1 сезон

6.8

iTunes

7.2

1 сезон

13

6.7

1 сезон

8.3

RePack

30

Deluxe

pack

9.9

Лицензия

ВАЖНО

ИГРА 18+

pack

7.3

RePack

MK11

7.7

RePack

jed

7.8

RePack

fifa19

8.5

RePack

RDR2

RePack

NEED FOR SPEED™ PAYBACK

4 сезон

9 сезон

Бесстыжие 9 сезон

Все сериалы

все сериалы на PB.wtf

RePack

FAR CRY 5

Anonymous, доброе утро, мы катастрофически не успеваем собрать деньги на оплату серверов, помогите нам пожалуйста 5,10,15р., для нас важна любая помощь . В качестве благодарности мы отключим Вам всю рекламу на сайте (укажите свой ник в строку Ваше имя)!

×
  
Magnet ссылка

Мичман Панин (Михаил Швейцер) [1960, СССР, приключения, военный, история, DVDRip от AVP Studio] pb.wtf

Мичман Панин через торрент pb.wtf

Размер: 1.09 GB | Добавлен: 3 года 6 мес. назад | Торрент скачан:16 раз
Смотреть онлайн Мичман Панин | Скачать    Ребята, помогите собрать деньги на оплату серверов!!!

08-03-2018 08:48 Мичман Панин Скачать торрент  

Мичман Панин
Страна: СССР
Производство: Мосфильм

Жанр: приключения, военный, история
Год выпуска: 1960
Продолжительность: 01:30:25

Перевод: Не требуется
Cубтитры: нет
Оригинальная аудиодорожка: русский

Режиссер: Михаил Швейцер

В ролях:
Вячеслав Тихонов, Николай Сергеев, Никита Подгорный, Леонид Куравлёв, Иван Переверзев, Лев Поляков, Олег Голубицкий, Леонид Кмит, Владимир Покровский, Николай Пажитнов, Григорий Шпигель, Евгений Тетерин, Даниил Нетребин, Григорий Михайлов, Николай Граббе, Рудольф Панков...
Об актёрах подробней

Описание:
По мотивам воспоминаний старого большевика Василия Лукича Панюшкина.
Май 1912 года. В военной крепости Кронштадт проходит суд над тринадцатью политическими заключенными. Приговор - смертная казнь через повешение. Подпольная большевистская организация крепости решает освободить заключённых во время их следования к месту казни. Одним из тех, кому была поручена эта опасная операция, был Василий Панин (Вячеслав Тихонов) - юнкер Военно-морского инженерного училища.

Источник: DVD5 R5
Качество видео: DVDRip
Формат видео: AVI

Видео: 688x512 (4:3), 25,000 кадров/сек, XviD ~ 1523 kbps avg, 0.173 bit/pixel
Аудио: 48 kHz, Dolby Digital AC3 2.0, 192 kbps

Раздача от:
Общее
Полное имя : Michman.Panin.1960.DVDRip_[New-team]_by_AVP_Studio.avi
Формат : AVI
Формат/Информация : Audio Video Interleave
Размер файла : 1,09 Гбайт
Продолжительность : 1 ч. 30 м.
Общий поток : 1724 Кбит/сек
Программа кодирования : VirtualDubMod 1.5.10.3 | www.virtualdub-fr.org || (build 2550/release)
Библиотека кодирования : VirtualDubMod build 2550/release

Видео
Идентификатор : 0
Формат : MPEG-4 Visual
Профиль формата : Advanced Simple@L5
Настройки формата : BVOP1 / Custom Matrix
Параметр BVOP формата : 1
Параметр QPel формата : Нет
Параметр GMC формата : Без точки перехода
Параметр матрицы формата : Выборочная
Идентификатор кодека : XVID
Идентификатор кодека/Подсказка : XviD
Продолжительность : 1 ч. 30 м.
Битрейт : 1523 Кбит/сек
Ширина : 688 пикселей
Высота : 512 пикселей
Соотношение сторон : 4:3
Частота кадров : 25,000 кадров/сек
Цветовое пространство : YUV
Субдискретизация насыщенности : 4:2:0
Битовая глубина : 8 бит
Тип развёртки : Прогрессивная
Метод сжатия : С потерями
Бит/(Пиксели*Кадры) : 0.173
Размер потока : 985 Мбайт (88%)
Библиотека кодирования : XviD 73

Аудио
Идентификатор : 1
Формат : AC-3
Формат/Информация : Audio Coding 3
Идентификатор кодека : 2000
Продолжительность : 1 ч. 30 м.
Вид битрейта : Постоянный
Битрейт : 192 Кбит/сек
Каналы : 2 канала
Расположение каналов : Front: L R
Частота : 48,0 КГц
Частота кадров : 31,250 кадров/сек (1536 SPF)
Битовая глубина : 16 бит
Метод сжатия : С потерями
Размер потока : 124 Мбайт (11%)
Выравнивание : Разделение по промежуткам
Продолжительность промежутка : 40 мс. (1,00 видеокадр)
Время предзагрузки промежутка : 500 мс
pb.wtf



Скачать Мичман Панин через торрент http://picplus.ru/img/1803/08/e3eccf25.png Скачать, смотреть онлайн Мичман Панин бесплантно в хорошем качестве Описание:По мотивам воспоминаний старого большевика Василия Лукича Панюшкина.Май 1912 года. В военной крепости Кронштадт проходит суд над ... 5 10 1
Info! Золотая раздача, скачанное не засчитывается.
Торрент: Зарегистрирован [2018-03-08 08:48] · скачан: 16 раз
Статус: √ проверено
Размер: 1.09 GB
Как cкачать? Как скачать Мичман Панин через торрент | UTorrent

% Раздел Тема Автор DL S | L
Кино СССР [ 1.09 GB ] Мичман Панин [1960 СССР военный история DVDRip-AVC от AVP Studio] AVP Studio Скачать
1 | 0

28-11-2019 20:33  

Отключить всю рекламу на сайте

    Дорогой пользователь! Огромная просьба, поблагодарите релизера, оцените раздачу и оставьте свои комментарий, если Вы скачали Мичман Панин через торрент бесплатно!
    Комментировать посты могут только пользователи прошедшие не сложную регистрацию
    Показать сообщения:    

    Мичман Панин через торрент
    Скачать бесплатно Мичман Панин
    Мичман Панин скачать торрент
    Мичман Панин смотреть онлайн
    Cкачать фильм Мичман Панин бесплатно
    Мичман Панин скачать торрент в хорошем качестве
    Мичман Панин смотреть онлайн бесплатно в хорошем качестве


    Вы не можете начинать темы
    Вы не можете отвечать на сообщения
    Вы не можете редактировать свои сообщения
    Вы не можете удалять свои сообщения
    Вы не можете голосовать в опросах
    Вы не можете прикреплять файлы к сообщениям
    Вы можете скачивать файлы