Ссылка на приватное зеркало нашего сайта всего за 1$. Внимание количество ограничено!!!

2 сезон

iTunes

1 сезон

1

iTunes

iTunes

iTunes

1 сезон

RePack

30

ИГРА 18+

pack

ВАЖНО

!!Акция!!

Alien_RageХит недели

RePack

MK11
pack

Забери бонус

RePack

jed

!!Акция!!

Alien_Rage

RePack

fifa19

RePack

Assassins Creed: Odyssey

RePack

NEED FOR SPEED™ PAYBACK

4 сезон

9 сезон

Бесстыжие 9 сезон

Все сериалы

все сериалы на PB.wtf

RePack

FAR CRY 5
  

Девичник / Серии 1-4 из 4 (Виталий Павлов) [2017, Комедия, мелодрама, SATRip] pb.wtf

Девичник через торрент pb.wtf

Размер: 2.55 GB | Добавлен: 2 года 7 мес. назад | Торрент скачан:79 раз
Скачать  

08-03-2018 09:41 Девичник Скачать торрент  

ДевичникГод выпуска: 2017
Страна: Россия
Жанр: Комедия, мелодрама
Продолжительность: ~ 00:45:00
Субтитры: отсутствуют

Режиссер: Виталий Павлов

В ролях:

Эльвира Болгова, Ирина Розанова, Аглая Шиловская, Владимир Зайцев, Сергей Глушко, Борис Талах, Валерий Александрин, Илья Домбровский, Максим Шпаковский, Вадим Афанасьев, Михаил Дитковский, Нина Маслова, Светлана Шиловская

Описание:

Три женщины, три поколения семьи внезапно оказываются на перепутье судьбы. Татьяна (Эльвира Болгова), проснувшись утром, обнаружила, что любимый человек бесследно исчез, оставив дорогой подарок – бриллиантовый браслет. Она не понимает, почему он так поступил, и какова причина исчезновения. Ее дочь Лиза (Аглая Шиловская), которая тоже потерпела фиаско в любви, застает маму в полной растерянности, и они вместе пытаются разгадать тайну браслета и исчезнувшего кавалера. По странному стечению обстоятельств, мать Татьяны (Ирина Розанова), Лариса уходит от мужчины, с которым жила последние десять лет, и приходит к дочери. Родственницы вместе берутся раскрыть тайну браслета. Чем закончится этот девичник? Что ждет их ждет в процессе поиска? Обретут ли они личное счастье?

Качество: SATRip
Формат: AVI

Видео: XviD, ~ 1800 Кбит/с, 720x400
Аудио#1: MP3, 2 ch, 128 Кбит/с
скриншот   скриншот   скриншот  

Общее
Полное имя : E:\Девичник\Devichnik.1.SATRip.[www.riperam.org].avi
Формат : AVI
Формат/Информация : Audio Video Interleave
Размер файла : 654 Мбайт
Продолжительность : 47 м. 12 с.
Общий поток : 1938 Кбит/сек
Программа кодирования : VirtualDubMod 1.5.10.3 (build 2550/release)
Библиотека кодирования : VirtualDubMod build 2550/release

Видео
Идентификатор : 0
Формат : MPEG-4 Visual
Профиль формата : Advanced Simple@L5
Настройки формата : BVOP2
Параметр BVOP формата : 2
Параметр QPel формата : Нет
Параметр GMC формата : Без точки перехода
Параметр матрицы формата : Default (H.263)
Идентификатор кодека : XVID
Идентификатор кодека/Подсказка : XviD
Продолжительность : 47 м. 12 с.
Битрейт : 1800 Кбит/сек
Ширина : 720 пикселей
Высота : 400 пикселей
Соотношение сторон : 16:9
Частота кадров : 25,000 кадров/сек
Цветовое пространство : YUV
Субдискретизация насыщенности : 4:2:0
Битовая глубина : 8 бит
Тип развёртки : Прогрессивная
Метод сжатия : С потерями
Бит/(Пиксели*Кадры) : 0.250
Размер потока : 608 Мбайт (93%)
Библиотека кодирования : XviD 1.2.1 (UTC 2008-12-04)

Аудио
Идентификатор : 1
Формат : MPEG Audio
Версия формата : Version 1
Профиль формата : Layer 3
Идентификатор кодека : 55
Идентификатор кодека/Подсказка : MP3
Продолжительность : 47 м. 12 с.
Вид битрейта : Постоянный
Битрейт : 128 Кбит/сек
Каналы : 2 канала
Частота : 48,0 КГц
Частота кадров : 41,667 кадра/сек (1152 SPF)
Метод сжатия : С потерями
Размер потока : 43,2 Мбайт (7%)
Выравнивание : Соединение по промежуткам
Продолжительность промежутка : 40 мс. (1,00 видеокадр)
Время предзагрузки промежутка : 504 мс.
Библиотека кодирования : LAME3.99r
Настройки программы : -m s -V 4 -q 2 -lowpass 17 -b 128

Внимание! Раздача ведётся путём добавления новых серий; при каждом добавлении создаётся новый торрент. Чтобы начать докачку новой серии, пользователям необходимо сделать следующее:
(1) остановить скачивание,
(2) удалить старый торрент у себя из клиента (старые серии удалять не надо),
(3) скачать новый торрент и запустить его у себя в клиенте вместо старого, при этом указать клиенту путь в старую папку куда и должно происходить скачивание новых серий.
Ваш клиент при этом должен произвести хеширование (проверку) старой папки (если не производит сам - помогите ему сделать это), и будет докачивать только те серии которых у вас ещё нет. Старые серии при этом не удаляются, а продолжают раздаваться!
Eсли вы уже удалили старые серии, то предотвратить повторную закачку старых серий можно, отжав галочку в соответствующих местах при запуске нового торрента. По возможности, желательно не удалять старые серии как можно дольше чтобы релизёр не столько продолжал раздавать старые серии, а смог сконцентрироваться на новых.
pb.wtf



Скачать Девичник через торрент http://i102.fastpic.ru/big/2018/0308/05/ada72e0551e9f4e4205cdf78f9842005.jpg Скачать фильм Девичник через торрент бесплантно в хорошем качестве Описание: Три женщины, три поколения семьи внезапно оказываются на перепутье судьбы. Татьяна (Эльвира Болгова), проснувшись утром, ... 9.1 10 7
Торрент: Зарегистрирован [2018-03-08 12:32] · скачан: 79 раз
Статус: √ проверено
Размер: 2.55 GB
Как cкачать? Как скачать Девичник через торрент | qTorrent

% Раздел Тема Автор DL S | L
Наши сериалы [ 2.34 GB ] Девичник / Серии 1-4 из 4 [2017 WEB-DLRip] bober100 Скачать
1 | 0

28-11-2019 20:33  

Отключить всю рекламу на сайте

    Дорогой пользователь! Огромная просьба, поблагодарите релизера, оцените раздачу и оставьте свои комментарий, если Вы скачали Девичник через торрент бесплатно! Внесите свою лепту в развитие PiratBit!
    Комментировать посты могут только пользователи прошедшие не сложную регистрацию
    Показать сообщения:    

    Девичник через торрент
    Скачать бесплатно Девичник
    Девичник скачать торрент
    Девичник смотреть онлайн
    Cкачать фильм Девичник бесплатно
    Девичник скачать торрент в хорошем качестве
    Девичник смотреть онлайн бесплатно в хорошем качестве


    Вы не можете начинать темы
    Вы не можете отвечать на сообщения
    Вы не можете редактировать свои сообщения
    Вы не можете удалять свои сообщения
    Вы не можете голосовать в опросах
    Вы не можете прикреплять файлы к сообщениям
    Вы можете скачивать файлы