Ссылка на приватное зеркало нашего сайта всего за 1$. Внимание количество ограничено!!!

2 сезон

iTunes

1 сезон

1

iTunes

iTunes

iTunes

1 сезон

RePack

30

ИГРА 18+

pack

ВАЖНО

!!Акция!!

Alien_RageХит недели

RePack

MK11
pack

Забери бонус

RePack

jed

!!Акция!!

Alien_Rage

RePack

fifa19

RePack

Assassins Creed: Odyssey

RePack

NEED FOR SPEED™ PAYBACK

4 сезон

9 сезон

Бесстыжие 9 сезон

Все сериалы

все сериалы на PB.wtf

RePack

FAR CRY 5
  

Чужая / Сезон: 1 / Серии: 1-8 из 8 (Павел Мальков) [2018, Мелодрама, HDTV 1080i] pb.wtf

Чужая через торрент pb.wtf

Размер: 21.99 GB | Добавлен: 2 года 7 мес. назад | Торрент скачан:18 раз
Скачать  

08-03-2018 10:59 Чужая Скачать торрент  

ЧужаяГод выпуска: 2018
Страна: Россия
Жанр: Мелодрама
Продолжительность: 8 х ~ 00:44:00
Перевод: Не требуется
Субтитры: отсутствуют

Режиссер: Павел Мальков



В ролях:

Елена Аросьева, Дмитрий Исаев, Евгений Пронин, Денис Матросов, Светлана Щедрина, Диана Дезмари, Галина Бокашевская, Михаил Разумовский, Вячеслав Аркунов, Полина Ульянова (II), Алёша Шаблюк

Описание:

Катя Полякова (Елена Аросьева) два года назад попала в автомобильную аварию. Сейчас она проходит реабилитацию, швы заживают отлично. Ее во всем поддерживает любящий муж Сергей (Дмитрий Исаев). Девушку вгоняет в отчаяние только одно – она потеряла память, и за эти годы так ничего и не смогла вспомнить: ни аварию, ни мужа, ни свою прошлую жизнь. Все вокруг кажется Кате чужим. Недавно в парке она встретила знакомого из прошлой жизни - Дмитрия (Евгений Пронин), которого тоже не смогла вспомнить. Дмитрий узнал ее, но быстро ушел, ничего не объяснив. Лишь попросил не рассказывать ничего мужу...

Качество: HDTV 1080i
Формат: MPEG-TS

Видео: MPEG-4 AVC, ~ 7100 Кбит/с, 1920x1080, 25 Кадр/с
Аудио: Русский (MP2, 2 ch, 192 Кбит/с)
скриншот   скриншот   скриншот  

Общее
Идентификатор : 1 (0x1)
Полное имя : C:\Chuzhaya.2018.HDTV.1080i\Chuzhaya.01.2018.HDTV.1080i.ts
Формат : MPEG-TS
Размер файла : 2,75 Гбайт
Продолжительность : 51 м. 20 с.
Режим общего битрейта : Переменный
Общий поток : 7665 Кбит/сек

Видео
Идентификатор : 2911 (0xB5F)
Идентификатор меню : 1192 (0x4A8)
Формат : AVC
Формат/Информация : Advanced Video Codec
Профиль формата : High@L4
Настройки формата : CABAC / 4 Ref Frames
Параметр CABAC формата : Да
Параметр RefFrames формата : 4 кадра
Идентификатор кодека : 27
Продолжительность : 51 м. 21 с.
Битрейт : 7092 Кбит/сек
Ширина : 1920 пикселей
Высота : 1080 пикселей
Соотношение сторон : 16:9
Частота кадров : 25,000 кадров/сек
Цветовое пространство : YUV
Субдискретизация насыщенности : 4:2:0
Битовая глубина : 8 бит
Тип развёртки : MBAFF
Метод сохранения типа развёртки : Чередующиеся поля
Порядок развёртки : Верхнее поле первое
Бит/(Пиксели*Кадры) : 0.137
Размер потока : 2,54 Гбайт (93%)

Аудио
Идентификатор : 2912 (0xB60)
Идентификатор меню : 1192 (0x4A8)
Формат : MPEG Audio
Версия формата : Version 1
Профиль формата : Layer 2
Идентификатор кодека : 3
Продолжительность : 51 м. 19 с.
Вид битрейта : Постоянный
Битрейт : 192 Кбит/сек
Каналы : 2 канала
Частота : 48,0 КГц
Частота кадров : 41,667 кадра/сек (1152 SPF)
Метод сжатия : С потерями
Задержка видео : -200 мс.
Размер потока : 70,5 Мбайт (3%)
Язык : Russian

pb.wtf



Скачать Чужая через торрент http://i100.fastpic.ru/big/2018/0305/6b/8fafd884d7d5a714aea56f604a4c346b.jpg Скачать фильм Чужая через торрент бесплантно в хорошем качестве Описание: Катя Полякова (Елена Аросьева) два года назад попала в автомобильную аварию. Сейчас она проходит реабилитацию, швы заживают ... 10 10 3
Info! Золотая раздача, скачанное не засчитывается.
Торрент: Зарегистрирован [2018-03-08 10:59] · скачан: 18 раз
Статус: √ проверено
Размер: 21.99 GB
Как cкачать? Как скачать Чужая через торрент | qTorrent

% Раздел Тема Автор DL S | L
Родина / Чужой среди своих / Homeland [ 7.82 GB ] Родина / Чужой среди своих / Homeland / Сезон: 8 / Серии: 1-12 из 12 [2020 WEB-DLRip] MVO [LostFilm] bober100 Скачать
1 | 0
Родина / Чужой среди своих / Homeland [ 44.9 GB ] Родина / Чужой среди своих / Homeland / Сезон: 8 / Серии: 1-12 из 12 [2020 WEB-DL 1080p] MVO [SDI Media / Амедиа] bober100 Скачать
1 | 0
Родина / Чужой среди своих / Homeland [ 10.94 GB ] Родина / Чужой среди своих / Homeland / Сезон: 8 / Серии: 1-3 из 12 [2020 WEB-DL 1080p] MVO [TVShows] bober100 Скачать
1 | 0
Родина / Чужой среди своих / Homeland [ 5.52 GB ] Родина / Чужой среди своих / Homeland / Сезон: 8 / Серии: 1-3 из 12 [2020 WEB-DL 720p] MVO [TVShows] bober100 Скачать
1 | 0
Родина / Чужой среди своих / Homeland [ 7.82 GB ] Родина / Чужой среди своих / Homeland / Сезон: 8 / Серии: 1-12 из 12 [2020 WEB-DLRip] MVO [SDI Media / Амедиа] bober100 Скачать
1 | 0
Наши сериалы [ 5.93 GB ] Чужая дочь / Сезон: 1 / Серии: 1-8 из 8 [2018 HDTVRip-AVC] bober100 Скачать
1 | 0
Наши сериалы [ 9.99 GB ] Чужая дочь / Сезон: 1 / Серии: 1-8 из 8 [2018 HDTVRip 720p] bober100 Скачать
1 | 0

28-11-2019 20:33  

Отключить всю рекламу на сайте

    Дорогой пользователь! Огромная просьба, поблагодарите релизера, оцените раздачу и оставьте свои комментарий, если Вы скачали Чужая через торрент бесплатно! Внесите свою лепту в развитие PiratBit!
    Комментировать посты могут только пользователи прошедшие не сложную регистрацию
    Показать сообщения:    

    Чужая через торрент
    Скачать бесплатно Чужая
    Чужая скачать торрент
    Чужая смотреть онлайн
    Cкачать фильм Чужая бесплатно
    Чужая скачать торрент в хорошем качестве
    Чужая смотреть онлайн бесплатно в хорошем качестве


    Вы не можете начинать темы
    Вы не можете отвечать на сообщения
    Вы не можете редактировать свои сообщения
    Вы не можете удалять свои сообщения
    Вы не можете голосовать в опросах
    Вы не можете прикреплять файлы к сообщениям
    Вы можете скачивать файлы