Ссылка на приватное зеркало нашего сайта всего за 1$. Внимание количество ограничено!!!

2 сезон

iTunes

1 сезон

1

2 сезон

2 сезон

iTunes

1 сезон

RePack

30

Ultimate

ВАЖНО

ИГРА 18+

pack

RePack

MK11
pack

Забери бонус

RePack

jed

!!Акция!!

Alien_Rage

RePack

fifa19

RePack

Assassins Creed: Odyssey

RePack

NEED FOR SPEED™ PAYBACK

4 сезон

9 сезон

Бесстыжие 9 сезон

Все сериалы

все сериалы на PB.wtf

RePack

FAR CRY 5
  

Praying Mantis - Legacy (Japanese Edition) - 2015/ FLAC/ image +.cue/ lossless/ Melodic Heavy Metal pb.wtf

Praying Mantis - Legacy через торрент pb.wtf

Размер: 509 MB | Добавлен: 2 года 8 мес. назад | Торрент скачан:10 раз
Скачать  

08-03-2018 11:16 Praying Mantis - Legacy Скачать торрент  


Praying Mantis - Legacy (Japanese Edition)


Год издания: 2015
Страна: UK
Жанр: Melodic Heavy Metal
Продолжительность: 00:58:38
Лейбл издания: King Record Co., Ltd.
Страна-выпуска диска: Japan
Номер по каталогу: KICP-1738
Формат: FLAC
Битрейт аудио: Lossless
Тип рипа: image +.cue
Наличие сканов в содержимом раздачи: да


01. Fight For Your Honour (5:21)
02. The One (4:00)
03. Believable (5:03)
04. Tokyo (5:48)
05. Better Man (4:37)
06. All I See (5:59)
07. Eyes Of A Child (4:34)
08. Here To Stay (Bonus Track) (3:32)
09. The Runner (5:10)
10. Against The World (4:24)
11. Fallen Angel (5:52)
12. Second Time Around (4:17)

Код:

Exact Audio Copy V1.1 from 23. June 2015

EAC extraction logfile from 2. September 2015, 14:07

Praying Mantis / Legacy

Used drive  : ATAPI   iHAS122   W   Adapter: 2  ID: 0

Read mode               : Secure
Utilize accurate stream : Yes
Defeat audio cache      : Yes
Make use of C2 pointers : No

Read offset correction                      : 48
Overread into Lead-In and Lead-Out          : No
Fill up missing offset samples with silence : Yes
Delete leading and trailing silent blocks   : No
Null samples used in CRC calculations       : Yes
Used interface                              : Installed external ASPI interface

Used output format              : User Defined Encoder
Selected bitrate                : 1024 kBit/s
Quality                         : High
Add ID3 tag                     : No
Command line compressor         : C:\Program Files\FLAC\flac.exe
Additional command line options : -V -8 -T "Date=%year%" -T "Genre=%genre%" -T"COMMENT=Ripped by  Ilijan" -8 -V %source%

TOC of the extracted CD

     Track |   Start  |  Length  | Start sector | End sector
    ---------------------------------------------------------
        1  |  0:00.00 |  5:21.00 |         0    |    24074
        2  |  5:21.00 |  4:00.35 |     24075    |    42109
        3  |  9:21.35 |  5:02.41 |     42110    |    64800
        4  | 14:24.01 |  5:47.47 |     64801    |    90872
        5  | 20:11.48 |  4:36.57 |     90873    |   111629
        6  | 24:48.30 |  5:59.11 |    111630    |   138565
        7  | 30:47.41 |  4:34.36 |    138566    |   159151
        8  | 35:22.02 |  3:31.68 |    159152    |   175044
        9  | 38:53.70 |  5:10.37 |    175045    |   198331
       10  | 44:04.32 |  4:23.61 |    198332    |   218117
       11  | 48:28.18 |  5:52.22 |    218118    |   244539
       12  | 54:20.40 |  4:17.10 |    244540    |   263824

Range status and errors

Selected range

     Filename D:\ИЛИЯН\Praying Mantis - Legacy.wav

     Peak level 98.8 %
     Extraction speed 3.9 X
     Range quality 100.0 %
     Test CRC D672EAD6
     Copy CRC D672EAD6
     Copy OK

No errors occurred

AccurateRip summary

Track  1  not present in database
Track  2  not present in database
Track  3  not present in database
Track  4  not present in database
Track  5  not present in database
Track  6  not present in database
Track  7  not present in database
Track  8  not present in database
Track  9  not present in database
Track 10  not present in database
Track 11  not present in database
Track 12  not present in database

None of the tracks are present in the AccurateRip database

End of status report

Код:

REM GENRE "Melodic Heavy Metal"
REM DATE 2015
REM DISCID 980DBD0C
REM COMMENT "ExactAudioCopy v1.1"
PERFORMER "Praying Mantis"
TITLE "Legacy"
FILE "Praying Mantis - Legacy.flac" WAVE
  TRACK 01 AUDIO
    TITLE "Fight For Your Honour"
    PERFORMER "Praying Mantis"
    INDEX 01 00:00:00
  TRACK 02 AUDIO
    TITLE "The One"
    PERFORMER "Praying Mantis"
    INDEX 00 05:20:55
    INDEX 01 05:21:00
  TRACK 03 AUDIO
    TITLE "Believable"
    PERFORMER "Praying Mantis"
    INDEX 00 09:21:15
    INDEX 01 09:21:35
  TRACK 04 AUDIO
    TITLE "Tokyo"
    PERFORMER "Praying Mantis"
    INDEX 00 14:22:66
    INDEX 01 14:24:01
  TRACK 05 AUDIO
    TITLE "Better Man"
    PERFORMER "Praying Mantis"
    INDEX 00 20:10:62
    INDEX 01 20:11:48
  TRACK 06 AUDIO
    TITLE "All I See"
    PERFORMER "Praying Mantis"
    INDEX 00 24:47:69
    INDEX 01 24:48:30
  TRACK 07 AUDIO
    TITLE "Eyes Of A Child"
    PERFORMER "Praying Mantis"
    INDEX 00 30:47:15
    INDEX 01 30:47:41
  TRACK 08 AUDIO
    TITLE "Here To Stay (Bonus Track)"
    PERFORMER "Praying Mantis"
    INDEX 00 35:21:48
    INDEX 01 35:22:02
  TRACK 09 AUDIO
    TITLE "The Runner"
    PERFORMER "Praying Mantis"
    INDEX 00 38:53:60
    INDEX 01 38:53:70
  TRACK 10 AUDIO
    TITLE "Against The World"
    PERFORMER "Praying Mantis"
    INDEX 00 44:04:22
    INDEX 01 44:04:32
  TRACK 11 AUDIO
    TITLE "Fallen Angel"
    PERFORMER "Praying Mantis"
    INDEX 00 48:28:06
    INDEX 01 48:28:18
  TRACK 12 AUDIO
    TITLE "Second Time Around"
    PERFORMER "Praying Mantis"
    INDEX 00 54:19:17
    INDEX 01 54:20:40




pb.wtf



Скачать Praying Mantis - Legacy через торрент http://i100.fastpic.ru/big/2018/0308/d6/da32cecf3d31fd02dafdfe36cc605bd6.png Скачать фильм Praying Mantis - Legacy через торрент бесплантно в хорошем качестве Трэклист Fight For Your Honour (5:21) The One (4:00) Believable (5:03) Tokyo (5:48) Better Man (4:37) ... 5 10 1
Торрент: Зарегистрирован [2018-03-08 11:16] · скачан: 10 раз
Статус: √ проверено
Размер: 509 MB
Как cкачать? Как скачать Praying Mantis - Legacy через торрент | qTorrent

28-11-2019 20:33  

Отключить всю рекламу на сайте

    Дорогой пользователь! Огромная просьба, поблагодарите релизера, оцените раздачу и оставьте свои комментарий, если Вы скачали Praying Mantis - Legacy через торрент бесплатно! Внесите свою лепту в развитие PiratBit!
    Комментировать посты могут только пользователи прошедшие не сложную регистрацию
    Показать сообщения:    

    Praying Mantis - Legacy через торрент
    Скачать бесплатно Praying Mantis - Legacy
    Praying Mantis - Legacy скачать торрент
    Praying Mantis - Legacy смотреть онлайн
    Cкачать фильм Praying Mantis - Legacy бесплатно
    Praying Mantis - Legacy скачать торрент в хорошем качестве
    Praying Mantis - Legacy смотреть онлайн бесплатно в хорошем качестве


    Вы не можете начинать темы
    Вы не можете отвечать на сообщения
    Вы не можете редактировать свои сообщения
    Вы не можете удалять свои сообщения
    Вы не можете голосовать в опросах
    Вы не можете прикреплять файлы к сообщениям
    Вы можете скачивать файлы