Ссылка на приватное зеркало нашего сайта всего за 1$. Внимание количество ограничено!!!

2 сезон

iTunes

1 сезон

1

2 сезон

2 сезон

iTunes

1 сезон

RePack

30

Новинка

ВАЖНО

ИГРА 18+

pack

RePack

MK11
pack

Забери бонус

RePack

jed

!!Акция!!

Alien_Rage

RePack

fifa19

RePack

Assassins Creed: Odyssey

RePack

NEED FOR SPEED™ PAYBACK

4 сезон

9 сезон

Бесстыжие 9 сезон

Все сериалы

все сериалы на PB.wtf

RePack

FAR CRY 5
  

Nocturnal Rites - Phoenix (Japanese Edition) - 2017/ FLAC/ image +.cue/ lossless/ Power Metal pb.wtf

Nocturnal Rites - Phoenix через торрент pb.wtf

Размер: 466 MB | Добавлен: 2 года 8 мес. назад | Торрент скачан:19 раз
Скачать  

08-03-2018 11:23 Nocturnal Rites - Phoenix Скачать торрент  


Nocturnal Rites - Phoenix (Japanese Edition)


Год издания: 2017
Страна: Sweden (Umea)
Жанр: Power Metal
Продолжительность: 00:50:00
Лейбл издания: King Record Co., Ltd.
Страна-выпуска диска: Japan
Номер по каталогу: KICP-1860
Формат: FLAC
Битрейт аудио: Lossless
Тип рипа: image +.cue
Наличие сканов в содержимом раздачи: да


01. A Heart As Black As Coal (4:21)
02. Before We Waste Away (4:46)
03. The Poisonous Seed (4:30)
04. Repent My Sins (3:52)
05. What's Killing Me (4:19)
06. A Song For You (3:50)
07. The Ghost Inside Me (5:34)
08. Nothing Can Break Me (4:22)
09. Flames (4:08)
10. Used To Be God (3:18)
11. Welcome To The End (4:05)
12. Before I Go (Bonus Track) (2:57)

Код:

Exact Audio Copy V1.3 from 2. September 2016

EAC extraction logfile from 25. September 2017, 11:51

Nocturnal Rites / Phoenix (Japan)

Used drive  : MATSHITADVD-RAM UJ8G6   Adapter: 1  ID: 0

Read mode               : Secure
Utilize accurate stream : Yes
Defeat audio cache      : Yes
Make use of C2 pointers : No

Read offset correction                      : 103
Overread into Lead-In and Lead-Out          : No
Fill up missing offset samples with silence : Yes
Delete leading and trailing silent blocks   : No
Null samples used in CRC calculations       : Yes
Used interface                              : Native Win32 interface for Win NT & 2000

Used output format              : User Defined Encoder
Selected bitrate                : 1024 kBit/s
Quality                         : High
Add ID3 tag                     : No
Command line compressor         : C:\Program Files (x86)\Exact Audio Copy\FLAC\FLAC.EXE
Additional command line options : -V -8 -T "Date=%year%" -T"Genre=%genre%" -T"COMMENT=Ripped by Ilijan - ilko" -8 -V %source%

TOC of the extracted CD

     Track |   Start  |  Length  | Start sector | End sector
    ---------------------------------------------------------
        1  |  0:00.00 |  4:20.50 |         0    |    19549
        2  |  4:20.50 |  4:45.54 |     19550    |    40978
        3  |  9:06.29 |  4:29.66 |     40979    |    61219
        4  | 13:36.20 |  3:51.53 |     61220    |    78597
        5  | 17:27.73 |  4:19.33 |     78598    |    98055
        6  | 21:47.31 |  3:50.10 |     98056    |   115315
        7  | 25:37.41 |  5:33.53 |    115316    |   140343
        8  | 31:11.19 |  4:21.63 |    140344    |   159981
        9  | 35:33.07 |  4:07.46 |    159982    |   178552
       10  | 39:40.53 |  3:17.66 |    178553    |   193393
       11  | 42:58.44 |  4:05.01 |    193394    |   211769
       12  | 47:03.45 |  2:56.38 |    211770    |   225007

Range status and errors

Selected range

     Filename D:\ilko\Nocturnal Rites - Phoenix (Japan).wav

     Peak level 98.2 %
     Extraction speed 3.9 X
     Range quality 100.0 %
     Test CRC 0C1F6FEE
     Copy CRC 0C1F6FEE
     Copy OK

No errors occurred


AccurateRip summary

Track  1  not present in database
Track  2  not present in database
Track  3  not present in database
Track  4  not present in database
Track  5  not present in database
Track  6  not present in database
Track  7  not present in database
Track  8  not present in database
Track  9  not present in database
Track 10  not present in database
Track 11  not present in database
Track 12  not present in database

None of the tracks are present in the AccurateRip database

End of status report

Код:

REM GENRE "Power Metal"
REM DATE 2017
REM DISCID A80BB80C
REM COMMENT "ExactAudioCopy v1.3"
PERFORMER "Nocturnal Rites"
TITLE "Phoenix (Japan)"
FILE "Nocturnal Rites - Phoenix (Japan).flac" WAVE
  TRACK 01 AUDIO
    TITLE "A Heart As Black As Coal"
    PERFORMER "Nocturnal Rites"
    INDEX 01 00:00:00
  TRACK 02 AUDIO
    TITLE "Before We Waste Away"
    PERFORMER "Nocturnal Rites"
    INDEX 01 04:20:50
  TRACK 03 AUDIO
    TITLE "The Poisonous Seed"
    PERFORMER "Nocturnal Rites"
    INDEX 01 09:06:29
  TRACK 04 AUDIO
    TITLE "Repent My Sins"
    PERFORMER "Nocturnal Rites"
    INDEX 01 13:36:20
  TRACK 05 AUDIO
    TITLE "What's Killing Me"
    PERFORMER "Nocturnal Rites"
    INDEX 01 17:27:73
  TRACK 06 AUDIO
    TITLE "A Song For You"
    PERFORMER "Nocturnal Rites"
    INDEX 01 21:47:31
  TRACK 07 AUDIO
    TITLE "The Ghost Inside Me"
    PERFORMER "Nocturnal Rites"
    INDEX 01 25:37:41
  TRACK 08 AUDIO
    TITLE "Nothing Can Break Me"
    PERFORMER "Nocturnal Rites"
    INDEX 01 31:11:19
  TRACK 09 AUDIO
    TITLE "Flames"
    PERFORMER "Nocturnal Rites"
    INDEX 01 35:33:07
  TRACK 10 AUDIO
    TITLE "Used To Be God"
    PERFORMER "Nocturnal Rites"
    INDEX 01 39:40:53
  TRACK 11 AUDIO
    TITLE "Welcome To The End"
    PERFORMER "Nocturnal Rites"
    INDEX 01 42:58:44
  TRACK 12 AUDIO
    TITLE "Before I Go (Bonus Track)"
    PERFORMER "Nocturnal Rites"
    INDEX 01 47:03:45


Jonny Lindqvist - Vocals
Fredrik Mannberg - Guitars
Owe Lingvall - Drums
Per Nilsson - Guitars
Nils Eriksson - Bass


pb.wtf



Скачать Nocturnal Rites - Phoenix через торрент http://i102.fastpic.ru/big/2018/0308/6e/c84b3a198337246df45e7fd6f111b36e.png Скачать фильм Nocturnal Rites - Phoenix через торрент бесплантно в хорошем качестве Трэклист A Heart As Black As Coal (4:21) Before We Waste Away (4:46) The Poisonous Seed (4:30) Repent My Sins ... 10 10 2
Торрент: Зарегистрирован [2018-03-08 11:23] · скачан: 19 раз
Статус: √ проверено
Размер: 466 MB
Как cкачать? Как скачать Nocturnal Rites - Phoenix через торрент | qTorrent

28-11-2019 20:33  

Отключить всю рекламу на сайте

05-09-2018 11:38 Nocturnal Rites - Phoenix Скачать торрент  

Лучшее что я слушал за последнее время. pb.wtf



    Дорогой пользователь! Огромная просьба, поблагодарите релизера, оцените раздачу и оставьте свои комментарий, если Вы скачали Nocturnal Rites - Phoenix через торрент бесплатно! Внесите свою лепту в развитие PiratBit!
    Комментировать посты могут только пользователи прошедшие не сложную регистрацию
    Показать сообщения:    

    Nocturnal Rites - Phoenix через торрент
    Скачать бесплатно Nocturnal Rites - Phoenix
    Nocturnal Rites - Phoenix скачать торрент
    Nocturnal Rites - Phoenix смотреть онлайн
    Cкачать фильм Nocturnal Rites - Phoenix бесплатно
    Nocturnal Rites - Phoenix скачать торрент в хорошем качестве
    Nocturnal Rites - Phoenix смотреть онлайн бесплатно в хорошем качестве


    Вы не можете начинать темы
    Вы не можете отвечать на сообщения
    Вы не можете редактировать свои сообщения
    Вы не можете удалять свои сообщения
    Вы не можете голосовать в опросах
    Вы не можете прикреплять файлы к сообщениям
    Вы можете скачивать файлы