MEGA NEWS Получи личный уникальный адрес сайта и защити себя от блокировок. Внимание количество ограничено!!!

iTunes

1+1

iTunes

мы

iTunes

1

iTunes

Чернобыль

iTunes

Ральф против интернета

Лицензия

ПШазам

Лицензия

Игра престолов

Лицензия

30
pack

ВАЖНО

!!Акция!!

Alien_RageХит недели

RePack

Resident Evil 21

ИГРА 18+

pack

RePack

Metro:Exodus

!!Акция!!

Alien_Rage

RePack

fifa19

RePack

Assassins Creed: Odyssey

RePack

NEED FOR SPEED™ PAYBACK

3 сезон

9 сезон

Бесстыжие 9 сезон

Все сериалы

все сериалы на PB.wtf

RePack

FAR CRY 5
Ребята, катастрофически не хватает 1900р. для оплаты серверов за АВГУСТ (всвязи с блокировками трафик упал в 3 раза), 1-2р., выручайте.
  

Ходячие мертвецы / The Walking Dead / Сезон: 8 / Серии: 1-16 из 16 (Грег Никотеро, Эрнест Р. Дикерсон, Гай Ферленд) [2017, ужасы, драма, WEB-DL 720p] MVO [NewStudio] pb.wtf

Ходячие мертвецы через торрент pb.wtf

Размер: 26.16 GB | Добавлен: 1 год 5 мес. назад | Торрент скачан:68 раз
Скачать  

08-03-2018 11:36 Ходячие мертвецы Скачать торрент  

☠ Ходячие мертвецы / The Walking Dead ☠ Информация о фильме:

Название: Ходячие мертвецы
Оригинальное название: The Walking Dead
Год выпуска: 2017 (8 сезон)
Страна: США
Жанр: ужасы, драма
Продолжительность: ~ 00:45:00
Перевод: Профессиональный многоголосый -
Субтитры: | Русские |

Режиссер: Грег Никотеро, Эрнест Р. Дикерсон, Гай Ферленд

rating

В ролях:

Эндрю Линкольн, Стивен Ян, Чендлер Риггз, Норман Ридус, Мелисса Сюзанн МакБрайд, Лорен Кохэн, Данай Джекесай Гурира, Сонекуа Мартин-Грин, Эмили Кинни, Аланна Мастерсон

Описание:

После страшной болезни, превратившей жителей Земли в зомби, небольшая группа пока еще живых людей изо дня в день борется за выживание в новом, враждебном мире. Под предводительством бывшего полицейского Рика они ищут безопасное для жизни место, но зомби — это не самое страшное, что их ждет, основная опасность — это жестокое внутреннее соперничество среди выживших

Информация о файле:

Качество: WEB-DL 720p
Формат: MKV

Видео: MPEG-4 AVC, ~ 4299 Кбит/с, 1280x716
Аудио#1: Русский (AC3, 6 ch, 384 Кбит/с)
Аудио#2: английский (AC3, 6 ch, 384 Кбит/с)
скриншот   скриншот   скриншот   скриншот   скриншот   скриншот  

Общее
Уникальный идентификатор : 208990817165037531518703850145235744222 (0x9D3A2AD363158E56BA6A90C7E11A35DE)
Полное имя : C:\The.Walking (Season 08) newstudio 720\The.Walking.Dead.s08e01.WEBDL.720p.NewStudio.TV.mkv
Формат : Matroska
Версия формата : Version 4 / Version 2
Размер файла : 1,61 Гбайт
Продолжительность : 47 м. 14 с.
Общий поток : 4872 Кбит/сек
Название фильма : The.Walking.Dead.S08E01.720p.WEB-DL.DD5.1.H264-RARBG
Дата кодирования : UTC 2017-10-24 14:11:20
Программа кодирования : mkvmerge v6.7.0 ('Back to the Ground') 32bit built on Jan 8 2014 15:03:17
Библиотека кодирования : libebml v1.3.0 + libmatroska v1.4.1
Обложка : Yes
Attachments : small_cover.jpg / small_cover_land.jpg / cover.jpg / cover_land.jpg

Видео
Идентификатор : 1
Формат : AVC
Формат/Информация : Advanced Video Codec
Профиль формата : High@L3.1
Настройки формата : 2 Ref Frames
Параметр CABAC формата : Нет
Параметр RefFrames формата : 2 кадра
Идентификатор кодека : V_MPEG4/ISO/AVC
Продолжительность : 47 м. 14 с.
Битрейт : 4207 Кбит/сек
Ширина : 1280 пикселей
Высота : 716 пикселей
Соотношение сторон : 16:9
Режим частоты кадров : Постоянный
Частота кадров : 23,976 (24000/1001) кадра/сек
Цветовое пространство : YUV
Субдискретизация насыщенности : 4:2:0
Битовая глубина : 8 бит
Тип развёртки : Прогрессивная
Бит/(Пиксели*Кадры) : 0.182
Размер потока : 1,32 Гбайт (82%)
Заголовок : The.Walking.Dead.S08E01.720p.WEB-DL.DD5.1.H264-RARBG
Язык : English
Default : Да
Forced : Нет
Цветовой диапазон : Limited
Основные цвета : BT.709
Характеристики трансфера : BT.709
Коэффициенты матрицы : BT.709

Аудио #1
Идентификатор : 2
Формат : AC-3
Формат/Информация : Audio Coding 3
Идентификатор кодека : A_AC3
Продолжительность : 47 м. 14 с.
Вид битрейта : Постоянный
Битрейт : 384 Кбит/сек
Каналы : 6 каналов
Расположение каналов : Front: L C R, Side: L R, LFE
Частота : 48,0 КГц
Частота кадров : 31,250 кадров/сек (1536 SPF)
Битовая глубина : 16 бит
Метод сжатия : С потерями
Задержка видео : -42 мс.
Размер потока : 130 Мбайт (8%)
Язык : Russian
ServiceKind/String : Complete Main
Default : Да
Forced : Да

Аудио #2
Идентификатор : 3
Формат : AC-3
Формат/Информация : Audio Coding 3
Идентификатор кодека : A_AC3
Продолжительность : 47 м. 14 с.
Вид битрейта : Постоянный
Битрейт : 384 Кбит/сек
Каналы : 6 каналов
Расположение каналов : Front: L C R, Side: L R, LFE
Частота : 48,0 КГц
Частота кадров : 31,250 кадров/сек (1536 SPF)
Битовая глубина : 16 бит
Метод сжатия : С потерями
Задержка видео : -42 мс.
Размер потока : 130 Мбайт (8%)
Заголовок : The.Walking.Dead.S08E01.720p.WEB-DL.DD5.1.H264-RARBG
Язык : English
ServiceKind/String : Complete Main
Default : Нет
Forced : Нет

Текст
Идентификатор : 4
Формат : ASS
Идентификатор кодека : S_TEXT/ASS
Идентификатор кодека/Информация : Advanced Sub Station Alpha
Метод сжатия : Без потерь
Язык : Russian
Default : Да
Forced : Да

Внимание! Раздача ведётся путём добавления новых серий; при каждом добавлении создаётся новый торрент. Чтобы начать докачку новой серии, пользователям необходимо сделать следующее:
(1) остановить скачивание,
(2) удалить старый торрент у себя из клиента (старые серии удалять не надо),
(3) скачать новый торрент и запустить его у себя в клиенте вместо старого, при этом указать клиенту путь в старую папку куда и должно происходить скачивание новых серий.
Ваш клиент при этом должен произвести хеширование (проверку) старой папки (если не производит сам - помогите ему сделать это), и будет докачивать только те серии которых у вас ещё нет. Старые серии при этом не удаляются, а продолжают раздаваться!
Eсли вы уже удалили старые серии, то предотвратить повторную закачку старых серий можно, отжав галочку в соответствующих местах при запуске нового торрента. По возможности, желательно не удалять старые серии как можно дольше чтобы релизёр не столько продолжал раздавать старые серии, а смог сконцентрироваться на новых.
pb.wtf



Скачать Ходячие мертвецы через торрент http://i91.fastpic.ru/big/2017/1023/41/73cf0ad479842307489a6e63b51e9f41.png Скачать фильм Ходячие мертвецы через торрент бесплантно в хорошем качестве Описание: После страшной болезни, превратившей жителей Земли в зомби, небольшая группа пока еще живых людей изо дня в день борется за ... 10 10 8
Info! Золотая раздача, скачанное не засчитывается.
Торрент: Зарегистрирован [2018-04-17 13:23] · скачан: 68 раз
Статус: √ проверено
Размер: 26.16 GB
Как cкачать? Как скачать Ходячие мертвецы через торрент | qTorrent

% Раздел Тема Автор DL S | L
Ходячие мертвецы (The Walking Dead) [ 25.94 GB ] Ходячие мертвецы / The Walking Dead / Сезон: 8 / Серии: 1-16 из 16 [2017 WEB-DL 720p] MVO [FOX] bober100 Скачать
1 | 0
Ходячие мертвецы (The Walking Dead) [ 9.16 GB ] Ходячие мертвецы / The Walking Dead / Сезон: 8 / Серии: 1-16 из 16 [2017 WEBRip] MVO [Profix Media] bober100 Скачать
2 | 0
Ходячие мертвецы (The Walking Dead) [ 27.05 GB ] Ходячие мертвецы / The Walking Dead / Сезон: 8 / Серии: 1-16 из 16 [2017-2018 WEBRip 720p] [MVO] killermax2013 Скачать
1 | 0
Ходячие мертвецы (The Walking Dead) [ 8.87 GB ] Ходячие мертвецы / The Walking Dead / Сезон: 8 / Серии: 1-16 из 16 [2017 WEB-DLRip] MVO [LostFilm] bober100 Скачать
1 | 0
Ходячие мертвецы (The Walking Dead) [ 30.8 GB ] Ходячие мертвецы / The Walking Dead / Сезон: 8 / Серии: 1-16 из 16 [2017 WEB-DL 1080p] MVO [FOX] bober100 Скачать
4 | 0
Ходячие мертвецы (The Walking Dead) [ 22.68 GB ] Ходячие мертвецы / The Walking Dead / Сезон: 8 / Серии: 1-16 из 16 [2017 HDTVRip 720p] MVO [ColdFilm] bober100 Скачать
1 | 0
Ходячие мертвецы (The Walking Dead) [ 30.14 GB ] Ходячие мертвецы / The Walking Dead / Сезон: 8 / Серии: 1-16 из 16 [2017 WEBRip 720p] MVO [BaibaKo] bober100 Скачать
1 | 0


>> Регистрируемся здесь <<






Отзывы и комментарии о схеме читаем и пишем здесь: ---> Отзывы и комментарии о схеме

Новые благодарочки в телеграм довольных пользователей:
скриншот   скриншот   скриншот   скриншот   скриншот
    Дорогой пользователь! Огромная просьба, поблагодарите релизера, оцените раздачу и оставьте свои комментарий, если Вы скачали Ходячие мертвецы через торрент бесплатно! Внесите свою лепту в развитие PiratBit!
    Комментировать посты могут только пользователи прошедшие не сложную регистрацию
    Показать сообщения:    

    Ходячие мертвецы через торрент
    Скачать бесплатно Ходячие мертвецы
    Ходячие мертвецы скачать торрент
    Ходячие мертвецы смотреть онлайн
    Cкачать фильм Ходячие мертвецы бесплатно
    Ходячие мертвецы скачать торрент в хорошем качестве
    Ходячие мертвецы смотреть онлайн бесплатно в хорошем качестве


    Вы не можете начинать темы
    Вы не можете отвечать на сообщения
    Вы не можете редактировать свои сообщения
    Вы не можете удалять свои сообщения
    Вы не можете голосовать в опросах
    Вы не можете прикреплять файлы к сообщениям
    Вы можете скачивать файлы