Присоединяйтесь к нам в Telegram!, здесь всегда актуальный адрес сайта, оперативная поддержка и многое другое!!

>

5.9

iTunes

7.4

iTunes

9.4

1 сезон

1

7.4

2 сезон

7.2

iTunes

7.3

1 сезон

13

6.1

iTunes

8.3

GOG

30

ULTIMATE

pack

9.9

Лицензия

ВАЖНО

ИГРА 18+

pack

7.3

RePack

MK11

7.7

RePack

jed

7.8

RePack

fifa19

8.5

RePack

RDR2

RePack

NEED FOR SPEED™ PAYBACK

5 сезон

9 сезон

Бесстыжие 9 сезон

Все сериалы

все сериалы на PB.wtf

RePack

FAR CRY 5

Anonymous, добрый вечер, мы катастрофически не успеваем собрать деньги на оплату серверов, помогите нам пожалуйста 5,10,15р., для нас важна любая помощь . В качестве благодарности мы отключим Вам всю рекламу на сайте (укажите свой ник в строку Ваше имя)!

×
  
Magnet ссылка

Ленинград feat. Вадим Галыгин - 8 Марта [Клип] [2018, Pop, WEBRip 1080p] pb.wtf

Ленинград feat. Вадим Галыгин - 8 Марта через торрент pb.wtf

Размер: 206 MB | Добавлен: 3 года 8 мес. назад | Торрент скачан:341 раз
Смотреть онлайн Ленинград feat. Вадим Галыгин - 8 Марта | Скачать    Ребята, помогите собрать деньги на оплату серверов!!!

08-03-2018 14:11 Ленинград feat. Вадим Галыгин - 8 Марта Скачать торрент  

Ленинград feat. Вадим Галыгин - 8 Марта
Год выпуска: 2018
Страна: Россия
Жанр: Pop
Продолжительность: 00:05:53
Перевод: Оригинальный
Субтитры: отсутствуют

Исполнитель:

Ленинград, Вадим Галыгин

Качество: WEBRip 1080p
Формат: MP4

Видео: MPEG-4 AVC, 4700 Кбит/с, 1920x1080
Аудио: AAC, 2 ch, 192 Кбит/с
скриншот   скриншот  скриншот  

Общее
Полное имя : E:\Вадим Галыгин и гр. Ленинград - 8 Марта.mp4
Формат : MPEG-4
Профиль формата : Base Media
Идентификатор кодека : isom (isom/iso2/avc1/mp41)
Размер файла : 206 Мбайт
Продолжительность : 5 м. 53 с.
Общий поток : 4897 Кбит/сек
Программа кодирования : Lavf57.83.100

Видео
Идентификатор : 1
Формат : AVC
Формат/Информация : Advanced Video Codec
Профиль формата : High@L4
Настройки формата : CABAC / 4 Ref Frames
Параметр CABAC формата : Да
Параметр RefFrames формата : 4 кадра
Идентификатор кодека : avc1
Идентификатор кодека/Информация : Advanced Video Coding
Продолжительность : 5 м. 53 с.
Битрейт : 4700 Кбит/сек
Номинальный битрейт : 4950 Кбит/сек
Ширина : 1920 пикселей
Высота : 1080 пикселей
Соотношение сторон : 16:9
Режим частоты кадров : Постоянный
Частота кадров : 25,000 кадров/сек
Цветовое пространство : YUV
Субдискретизация насыщенности : 4:2:0
Битовая глубина : 8 бит
Тип развёртки : Прогрессивная
Бит/(Пиксели*Кадры) : 0.091
Размер потока : 198 Мбайт (96%)
Библиотека кодирования : x264 core 148
Настройки программы : cabac=1 / ref=2 / deblock=1:0:0 / analyse=0x3:0x113 / me=hex / subme=6 / psy=1 / psy_rd=1.00:0.00 / mixed_ref=1 / me_range=16 / chroma_me=1 / trellis=1 / 8x8dct=1 / cqm=0 / deadzone=21,11 / fast_pskip=1 / chroma_qp_offset=-2 / threads=6 / lookahead_threads=1 / sliced_threads=0 / nr=0 / decimate=1 / interlaced=0 / bluray_compat=0 / constrained_intra=0 / bframes=3 / b_pyramid=2 / b_adapt=1 / b_bias=0 / direct=1 / weightb=1 / open_gop=0 / weightp=1 / keyint=250 / keyint_min=25 / scenecut=40 / intra_refresh=0 / rc_lookahead=30 / rc=2pass / mbtree=1 / bitrate=4950 / ratetol=1.0 / qcomp=0.60 / qpmin=0 / qpmax=69 / qpstep=4 / cplxblur=20.0 / qblur=0.5 / vbv_maxrate=4950 / vbv_bufsize=9900 / nal_hrd=none / filler=0 / ip_ratio=1.40 / aq=1:1.00

Аудио
Идентификатор : 2
Формат : AAC
Формат/Информация : Advanced Audio Codec
Профиль формата : LC
Идентификатор кодека : mp4a-40-2
Продолжительность : 5 м. 53 с.
Вид битрейта : Постоянный
Битрейт : 192 Кбит/сек
Каналы : 2 канала
Расположение каналов : Front: L R
Частота : 44,1 КГц
Частота кадров : 43,066 кадра/сек (1024 SPF)
Метод сжатия : С потерями
Размер потока : 8,09 Мбайт (4%)
Default : Да
AlternateGroup/String : 1

pb.wtf



Скачать Ленинград feat. Вадим Галыгин - 8 Марта через торрент http://lostpix.com/img/2018-03/08/qvzv9oqab83lfpth0iw3upl72.jpg Скачать, смотреть онлайн Ленинград feat. Вадим Галыгин - 8 Марта [Клип] [2018, Pop, WEBRip 1080p] бесплантно в хорошем качестве Год выпуска: 2018Страна: РоссияЖанр: PopПродолжительность: 00:05:53Перевод: ОригинальныйСубтитры: отсутствуютИсполнитель: Ленинград, Вадим ... 8.3 10 7
Торрент: Зарегистрирован [2018-03-08 14:11] · скачан: 341 раз
Статус: √ проверено
Размер: 206 MB
Как cкачать? Как скачать Ленинград feat. Вадим Галыгин - 8 Марта через торрент | UTorrent



Последний раз редактировалось: bober100 (2018-03-08 15:34), всего редактировалось 1 раз

28-11-2019 20:33  

Отключить всю рекламу на сайте

    Дорогой пользователь! Огромная просьба, поблагодарите релизера, оцените раздачу и оставьте свои комментарий, если Вы скачали Ленинград feat. Вадим Галыгин - 8 Марта через торрент бесплатно!
    Комментировать посты могут только пользователи прошедшие не сложную регистрацию
    Показать сообщения:    

    Ленинград feat. Вадим Галыгин - 8 Марта через торрент
    Скачать бесплатно Ленинград feat. Вадим Галыгин - 8 Марта
    Ленинград feat. Вадим Галыгин - 8 Марта скачать торрент
    Ленинград feat. Вадим Галыгин - 8 Марта смотреть онлайн
    Cкачать фильм Ленинград feat. Вадим Галыгин - 8 Марта бесплатно
    Ленинград feat. Вадим Галыгин - 8 Марта скачать торрент в хорошем качестве
    Ленинград feat. Вадим Галыгин - 8 Марта смотреть онлайн бесплатно в хорошем качестве


    Вы не можете начинать темы
    Вы не можете отвечать на сообщения
    Вы не можете редактировать свои сообщения
    Вы не можете удалять свои сообщения
    Вы не можете голосовать в опросах
    Вы не можете прикреплять файлы к сообщениям
    Вы можете скачивать файлы