Ссылка на приватное зеркало всего за 1$. Внимание количество ограничено!!!

OK

1+1

iTunes

мы

OK

1

WEB-DLRip

Джокер

Пифагор

Ведьмак / The Witcher сериал

iTunes

ПШазам

ОК

Оно 2

iTunes

30
pack

Вам бонус

ВАЖНО

!!Акция!!

Alien_RageХит недели

RePack

Resident Evil 21

ИГРА 18+

pack

RePack

jed

RePack

fifa19

RePack

Assassins Creed: Odyssey

RePack

NEED FOR SPEED™ PAYBACK

4 сезон

9 сезон

Бесстыжие 9 сезон

Все сериалы

все сериалы на PB.wtf

RePack

FAR CRY 5
  

Грязь / Dirt (Алекс Ранаривело) [2018, спорт, WEB-DL 720p] MVO ["Синема УС"] pb.wtf

Грязь через торрент pb.wtf

Размер: 3.63 GB | Добавлен: 1 год 10 мес. назад | Торрент скачан:138 раз
Скачать  

08-03-2018 18:28 Грязь Скачать торрент  

Грязь / DirtГод выпуска: 2018
Страна: США
Жанр: спорт
Продолжительность: 01:43:59
Перевод: Любительский (многоголосый) ["Синема УС"]
Субтитры: отсутствуют

Режиссер: Алекс Ранаривело

rating

В ролях:

Кевин Диллон, Дерон Хортон, Кристина Мур, Нтаре Мвине, Доминик Девор, Мэттью Глэйв, Блейк Херон, Деван Лонг, Джесс Вудроу

Описание:

Пытаясь спасти свою команду от поражения в гоночном чемпионате, Рик нанимает юного угощника машин, чтобы дать ему второй шанс. По мере развития событий, парень становится неотъемлемой частью команды. Демонстрируя отличные навыки ремонта машин, он начинает конкурировать с главным гонщиком в команде.

Качество: WEB-DL 720p
Формат: MKV

Видео: 4605 Kбит/с, 1280x534
Аудио#1: Русский, (AC3, 2 ch, 384 Кбит/с)
скриншот  скриншот  скриншот  

Общее
Уникальный идентификатор : 236831449956694215759843365834033424369 (0xB22C13FFF6580A7EA703BC4A511F67F1)
Полное имя : E:\Dirt.2018.P.WEB-DL.72Op_KOSHARA.mkv
Формат : Matroska
Версия формата : Version 2
Размер файла : 3,63 Гбайт
Продолжительность : 1 ч. 43 м.
Режим общего битрейта : Переменный
Общий поток : 4991 Кбит/сек
Дата кодирования : UTC 2018-03-08 14:45:31
Программа кодирования : mkvmerge v8.3.0 ('Over the Horizon') 64bit
Библиотека кодирования : libebml v1.3.1 + libmatroska v1.4.2

Видео
Идентификатор : 1
Формат : AVC
Формат/Информация : Advanced Video Codec
Профиль формата : High@L4.1
Настройки формата : CABAC / 4 Ref Frames
Параметр CABAC формата : Да
Параметр RefFrames формата : 4 кадра
Идентификатор кодека : V_MPEG4/ISO/AVC
Продолжительность : 1 ч. 43 м.
Вид битрейта : Переменный
Битрейт : 4605 Кбит/сек
Максимальный битрейт : 5000 Кбит/сек
Ширина : 1280 пикселей
Высота : 534 пикселя
Соотношение сторон : 2,40:1
Режим частоты кадров : Постоянный
Частота кадров : 23,976 (24000/1001) кадра/сек
Стандарт вещания : Component
Цветовое пространство : YUV
Субдискретизация насыщенности : 4:2:0
Битовая глубина : 8 бит
Тип развёртки : Прогрессивная
Бит/(Пиксели*Кадры) : 0.275
Размер потока : 3,27 Гбайт (90%)
Default : Да
Forced : Нет
Цветовой диапазон : Limited
Основные цвета : BT.709
Характеристики трансфера : BT.709
Коэффициенты матрицы : BT.709

Аудио
Идентификатор : 2
Формат : AC-3
Формат/Информация : Audio Coding 3
Идентификатор кодека : A_AC3
Продолжительность : 1 ч. 43 м.
Вид битрейта : Постоянный
Битрейт : 384 Кбит/сек
Каналы : 2 канала
Расположение каналов : Front: L R
Частота : 48,0 КГц
Частота кадров : 31,250 кадров/сек (1536 SPF)
Битовая глубина : 16 бит
Метод сжатия : С потерями
Размер потока : 286 Мбайт (8%)
ServiceKind/String : Complete Main
Default : Да
Forced : Нет

pb.wtf



Скачать Грязь через торрент http://img12.lostpic.net/2018/03/08/526545b0ec7dc75f06106f67cb6b4f38.jpg Скачать фильм Грязь через торрент бесплантно в хорошем качестве Описание: Пытаясь спасти свою команду от поражения в гоночном чемпионате, Рик нанимает юного угощника машин, чтобы дать ему второй шанс. По ... 7.4 10 7
Торрент: Зарегистрирован [2018-03-08 18:28] · скачан: 138 раз
Статус: T временная
Размер: 3.63 GB
Как cкачать? Как скачать Грязь через торрент | qTorrent

% Раздел Тема Автор DL S | L
Ultra HD (UHD: 2K, 4K, 8K) — видео сверхвысокой чёткости [ 25.34 GB ] Грязь / The Dirt [2019 биография UHD WEB-DLRip 2160p] [SDR] [Пифагор] sheker187 Скачать
1 | 0
Фильмы (WEB-DL 720p, 1080p) [ 4.63 GB ] Грязь / The Dirt [2019 биография музыка WEB-DL 1080p] DUB [Пифагор] bober100 Скачать
2 | 0
T Фильмы (мультфильмы) cо спонсором показа (Новинки AVI/MKV) [ 1.46 GB ] Грязь / Dirt [2018 WEB-DLRip] MVO ["Синема УС"] bober100 Скачать
1 | 0
T Фильмы 2016 [DVDrip, WEB-DLRip, HDrip] (DUB, MVO) [ 1.37 GB ] Грязь Лос-Анджелеса / Alabama Dirt [2016 WEB-DLRip] MVO [Синема УС] bober100 Скачать
1 | 0

28-11-2019 20:33  

Отключить всю рекламу на сайте

    Дорогой пользователь! Огромная просьба, поблагодарите релизера, оцените раздачу и оставьте свои комментарий, если Вы скачали Грязь через торрент бесплатно! Внесите свою лепту в развитие PiratBit!
    Комментировать посты могут только пользователи прошедшие не сложную регистрацию
    Показать сообщения:    

    Грязь через торрент
    Скачать бесплатно Грязь
    Грязь скачать торрент
    Грязь смотреть онлайн
    Cкачать фильм Грязь бесплатно
    Грязь скачать торрент в хорошем качестве
    Грязь смотреть онлайн бесплатно в хорошем качестве


    Вы не можете начинать темы
    Вы не можете отвечать на сообщения
    Вы не можете редактировать свои сообщения
    Вы не можете удалять свои сообщения
    Вы не можете голосовать в опросах
    Вы не можете прикреплять файлы к сообщениям
    Вы можете скачивать файлы