Ссылка на приватное зеркало нашего сайта всего за 1$. Внимание количество ограничено!!!

2 сезон

iTunes

iTunes

1

iTunes

iTunes

iTunes

WEBRip

iTunes

30
pack

Вам бонус

ВАЖНО

!!Акция!!

Alien_RageХит недели

RePack

Horizon Zero Dawn

ИГРА 18+

pack

RePack

jed

!!Акция!!

Alien_Rage

RePack

fifa19

RePack

Assassins Creed: Odyssey

RePack

NEED FOR SPEED™ PAYBACK

4 сезон

9 сезон

Бесстыжие 9 сезон

Все сериалы

все сериалы на PB.wtf

RePack

FAR CRY 5
  

Опасный элемент / The Danger Element (Джон Суарес) [2017, боевик, WEB-DL 720p] MVO ["Синема УС"] pb.wtf

Опасный элемент через торрент pb.wtf

Размер: 3.5 GB | Добавлен: 2 года 6 мес. назад | Торрент скачан:121 раз
Скачать  

08-03-2018 19:14 Опасный элемент Скачать торрент  

Опасный элемент / The Danger ElementГод выпуска: 2017
Страна: США
Жанр: боевик
Продолжительность: 01:42:56
Перевод: Любительский (многоголосый) ["Синема УС"]
Субтитры: отсутствуют

Режиссер: Джон Суарес

rating

В ролях:

Даг Джонс, Кэсси Медер, Джон Суарес

Описание:

Смесь Индианы Джонса и Бэтмена превращается в фильм, полный экшена, боевых искусств и приключений. Член тайного ордена борцов с преступностью и его отрешённая сестра противостоят бандитам и сумасшедшему ученому в погоне за украденным загадочным Опасным Элементом.

Качество: WEB-DL 720p
Формат: MKV

Видео: 4483 Kбит/с, 1280x720
Аудио#1: Русский, (AC3, 2 ch, 384 Кбит/с)
скриншот  скриншот  скриншот  

Общее
Уникальный идентификатор : 210977862654590377205067327700661079704 (0x9EB8DBBB71D89C129CD456C104268E98)
Полное имя : E:\торреннты\The.Danger.Element.2017.P.WEB-DL.72Op_KOSHARA.mkv
Формат : Matroska
Версия формата : Version 2
Размер файла : 3,50 Гбайт
Продолжительность : 1 ч. 42 м.
Режим общего битрейта : Переменный
Общий поток : 4869 Кбит/сек
Дата кодирования : UTC 2018-03-08 14:38:54
Программа кодирования : mkvmerge v8.3.0 ('Over the Horizon') 64bit
Библиотека кодирования : libebml v1.3.1 + libmatroska v1.4.2

Видео
Идентификатор : 1
Формат : AVC
Формат/Информация : Advanced Video Codec
Профиль формата : High@L4.1
Настройки формата : CABAC / 4 Ref Frames
Параметр CABAC формата : Да
Параметр RefFrames формата : 4 кадра
Идентификатор кодека : V_MPEG4/ISO/AVC
Продолжительность : 1 ч. 42 м.
Вид битрейта : Переменный
Битрейт : 4483 Кбит/сек
Максимальный битрейт : 5000 Кбит/сек
Ширина : 1280 пикселей
Высота : 720 пикселей
Соотношение сторон : 16:9
Режим частоты кадров : Постоянный
Частота кадров : 23,976 (24000/1001) кадра/сек
Стандарт вещания : Component
Цветовое пространство : YUV
Субдискретизация насыщенности : 4:2:0
Битовая глубина : 8 бит
Тип развёртки : Прогрессивная
Бит/(Пиксели*Кадры) : 0.199
Размер потока : 3,16 Гбайт (90%)
Default : Да
Forced : Нет
Цветовой диапазон : Limited
Основные цвета : BT.709
Характеристики трансфера : BT.709
Коэффициенты матрицы : BT.709

Аудио
Идентификатор : 2
Формат : AC-3
Формат/Информация : Audio Coding 3
Идентификатор кодека : A_AC3
Продолжительность : 1 ч. 42 м.
Вид битрейта : Постоянный
Битрейт : 384 Кбит/сек
Каналы : 2 канала
Расположение каналов : Front: L R
Частота : 48,0 КГц
Частота кадров : 31,250 кадров/сек (1536 SPF)
Битовая глубина : 16 бит
Метод сжатия : С потерями
Размер потока : 283 Мбайт (8%)
ServiceKind/String : Complete Main
Default : Да
Forced : Нет

pb.wtf



Скачать Опасный элемент через торрент http://img12.lostpic.net/2018/03/08/1a0476e9837efd9245deae50b36548b0.jpg Скачать фильм Опасный элемент через торрент бесплантно в хорошем качестве Описание: Смесь Индианы Джонса и Бэтмена превращается в фильм, полный экшена, боевых искусств и приключений. Член тайного ордена борцов с ... 8.2 10 6
Торрент: Зарегистрирован [2018-03-08 19:14] · скачан: 121 раз
Статус: T временная
Размер: 3.5 GB
Как cкачать? Как скачать Опасный элемент через торрент | qTorrent

% Раздел Тема Автор DL S | L
T Фильмы (мультфильмы) cо спонсором показа (Новинки AVI/MKV) [ 1.37 GB ] Опасный элемент / The Danger Element [2017 WEB-DLRip] MVO ["Синема УС"] bober100 Скачать
1 | 0

28-11-2019 20:33  

Отключить всю рекламу на сайте

08-03-2018 20:30 Опасный элемент Скачать торрент  

Скрины просто фантастика!pb.wtf



08-03-2018 20:33 Опасный элемент Скачать торрент  

и такое ГОВНО-снимают??
неужели кому то нравится??

малобюджетная фигняpb.wtf



08-03-2018 20:34 Опасный элемент Скачать торрент  

Пожалуй... это слишком жёстко для меня! pb.wtf



08-03-2018 23:18 Опасный элемент Скачать торрент  

тРЭШ кино не получилось я так понял???pb.wtf



09-03-2018 07:12 Опасный элемент Скачать торрент  

чушь редкасная pb.wtf



09-03-2018 17:46 Опасный элемент Скачать торрент  

dimonsem писал(а):

Скрины просто фантастика!

pb.wtf



    Дорогой пользователь! Огромная просьба, поблагодарите релизера, оцените раздачу и оставьте свои комментарий, если Вы скачали Опасный элемент через торрент бесплатно! Внесите свою лепту в развитие PiratBit!
    Комментировать посты могут только пользователи прошедшие не сложную регистрацию
    Показать сообщения:    

    Опасный элемент через торрент
    Скачать бесплатно Опасный элемент
    Опасный элемент скачать торрент
    Опасный элемент смотреть онлайн
    Cкачать фильм Опасный элемент бесплатно
    Опасный элемент скачать торрент в хорошем качестве
    Опасный элемент смотреть онлайн бесплатно в хорошем качестве


    Вы не можете начинать темы
    Вы не можете отвечать на сообщения
    Вы не можете редактировать свои сообщения
    Вы не можете удалять свои сообщения
    Вы не можете голосовать в опросах
    Вы не можете прикреплять файлы к сообщениям
    Вы можете скачивать файлы