Ссылка на приватное зеркало нашего сайта всего за 1$. Внимание количество ограничено!!!

2 сезон

iTunes

1 сезон

1

iTunes

iTunes

iTunes

1 сезон

RePack

30

ИГРА 18+

pack

ВАЖНО

!!Акция!!

Alien_RageХит недели

RePack

MK11
pack

Забери бонус

RePack

jed

!!Акция!!

Alien_Rage

RePack

fifa19

RePack

Assassins Creed: Odyssey

RePack

NEED FOR SPEED™ PAYBACK

4 сезон

9 сезон

Бесстыжие 9 сезон

Все сериалы

все сериалы на PB.wtf

RePack

FAR CRY 5
  

Стоматолог / Сезон: 1 / Серии: 1-20 из 20 (Александр Тименко, Сергей Толкушкин) [2018, Детектив, WEB-DLRip-AVC] pb.wtf

Стоматолог через торрент pb.wtf

Размер: 11.53 GB | Добавлен: 2 года 7 мес. назад | Торрент скачан:51 раз
Скачать  

08-03-2018 19:27 Стоматолог Скачать торрент  

СтоматологГод выпуска: 2018
Страна: Украина
Жанр: Детектив
Продолжительность: ~ 00:47:00
Перевод: Не требуется
Субтитры: отсутствуют

Режиссер: Александр Тименко, Сергей Толкушкин

В ролях:

Сергей Басок, Виталий Метерчук, Артем Позняк, Юрий Яковлев, Павел Тупиков, Сергей Малюга, Екатерина Варченко, Ольга Голдис, Оксана Гребенюк

Описание:

Основанный на повести Павла «Паштета» Белянского сериал повествует о молодом собственнике стоматологической клиники по имени Дмитрий Торопкой. Он встречает девушку, в которую влюбляется, но происходит убийство, которое смешало все карты. Подозревая, что его новая возлюбленная каким-то образом связана с произошедшим, Дмитрий решает разобраться во всем сам. Чувствуя, что ему нужна помощь, Дмитрий привлекает к расследованию своих друзей – гинеколога Петра Демина и бывшего бандита, а ныне бизнесмена, Сергея Грязева..

Качество: WEB-DLRip-AVC
Формат: MKV

Видео: MPEG-4 AVC, ~ 1600 Кбит/с, 1024x576, 25 кадр/с
Аудио#1: AC3, 2 ch, 192 Кбит/с
скриншот   скриншот   скриншот   скриншот  

Общее
Уникальный идентификатор : 196232320765333593580182113841088401014 (0x93A0F86314BADABA9129EB2E7AF18E76)
Полное имя : E:\торреннты\Stomatolog.(2018).WEB-DLRip.(AVC).Files-x\01.Stomatolog.(2018).WEB-DLRip.(AVC).by.Серый1779.Files-x.mkv
Формат : Matroska
Версия формата : Version 2
Размер файла : 616 Мбайт
Продолжительность : 48 м. 6 с.
Общий поток : 1791 Кбит/сек
Дата кодирования : UTC 2018-02-06 20:12:07
Программа кодирования : mkvmerge v7.8.0 ('River Man') 32bit built on Apr 3 2015 12:11:22
Библиотека кодирования : libebml v1.3.1 + libmatroska v1.4.2

Видео
Идентификатор : 1
Формат : AVC
Формат/Информация : Advanced Video Codec
Профиль формата : High@L4.1
Настройки формата : CABAC / 9 Ref Frames
Параметр CABAC формата : Да
Параметр RefFrames формата : 9 кадров
Идентификатор кодека : V_MPEG4/ISO/AVC
Продолжительность : 48 м. 6 с.
Битрейт : 1600 Кбит/сек
Ширина : 1024 пикселя
Высота : 576 пикселей
Соотношение сторон : 16:9
Режим частоты кадров : Постоянный
Частота кадров : 25,000 кадров/сек
Цветовое пространство : YUV
Субдискретизация насыщенности : 4:2:0
Битовая глубина : 8 бит
Тип развёртки : Прогрессивная
Бит/(Пиксели*Кадры) : 0.109
Размер потока : 538 Мбайт (87%)
Библиотека кодирования : x264 core 146 r2538 121396c
Настройки программы : cabac=1 / ref=9 / deblock=1:-2:-1 / analyse=0x3:0x133 / me=umh / subme=9 / psy=1 / psy_rd=1.00:0.15 / mixed_ref=1 / me_range=32 / chroma_me=1 / trellis=2 / 8x8dct=1 / cqm=0 / deadzone=21,11 / fast_pskip=0 / chroma_qp_offset=-3 / threads=18 / lookahead_threads=3 / sliced_threads=0 / nr=0 / decimate=1 / interlaced=0 / bluray_compat=0 / constrained_intra=0 / bframes=9 / b_pyramid=2 / b_adapt=2 / b_bias=0 / direct=1 / weightb=1 / open_gop=0 / weightp=2 / keyint=250 / keyint_min=25 / scenecut=40 / intra_refresh=0 / rc=2pass / mbtree=0 / bitrate=1600 / ratetol=1.0 / qcomp=0.60 / qpmin=0 / qpmax=69 / qpstep=4 / cplxblur=20.0 / qblur=0.5 / ip_ratio=1.40 / pb_ratio=1.30 / aq=2:1.00
Default : Да
Forced : Нет
Цветовой диапазон : Limited
Основные цвета : BT.709
Характеристики трансфера : BT.709
Коэффициенты матрицы : BT.709

Аудио
Идентификатор : 2
Формат : AC-3
Формат/Информация : Audio Coding 3
Идентификатор кодека : A_AC3
Продолжительность : 48 м. 6 с.
Вид битрейта : Постоянный
Битрейт : 192 Кбит/сек
Каналы : 2 канала
Расположение каналов : Front: L R
Частота : 48,0 КГц
Частота кадров : 31,250 кадров/сек (1536 SPF)
Битовая глубина : 16 бит
Метод сжатия : С потерями
Размер потока : 66,1 Мбайт (11%)
ServiceKind/String : Complete Main
Default : Да
Forced : Нет

pb.wtf



Скачать Стоматолог через торрент http://img12.lostpic.net/2018/02/06/fb97f7d53278b0181ded954053b3d5a7.jpg Скачать фильм Стоматолог через торрент бесплантно в хорошем качестве Описание: Основанный на повести Павла «Паштета» Белянского сериал повествует о молодом собственнике стоматологической клиники по имени ... 7 10 3
Info! Серебряная раздача, засчитывается только 50% скачанного.
Торрент: Зарегистрирован [2018-03-08 19:27] · скачан: 51 раз
Статус: √ проверено
Размер: 11.53 GB
Как cкачать? Как скачать Стоматолог через торрент | qTorrent

% Раздел Тема Автор DL S | L
Наши сериалы [ 11.72 GB ] Стоматолог / Сезон: 1 / Серии: 1-20 из 20 [2018 WEB-DLRip] bober100 Скачать
1 | 0

28-11-2019 20:33  

Отключить всю рекламу на сайте

    Дорогой пользователь! Огромная просьба, поблагодарите релизера, оцените раздачу и оставьте свои комментарий, если Вы скачали Стоматолог через торрент бесплатно! Внесите свою лепту в развитие PiratBit!
    Комментировать посты могут только пользователи прошедшие не сложную регистрацию
    Показать сообщения:    

    Стоматолог через торрент
    Скачать бесплатно Стоматолог
    Стоматолог скачать торрент
    Стоматолог смотреть онлайн
    Cкачать фильм Стоматолог бесплатно
    Стоматолог скачать торрент в хорошем качестве
    Стоматолог смотреть онлайн бесплатно в хорошем качестве


    Вы не можете начинать темы
    Вы не можете отвечать на сообщения
    Вы не можете редактировать свои сообщения
    Вы не можете удалять свои сообщения
    Вы не можете голосовать в опросах
    Вы не можете прикреплять файлы к сообщениям
    Вы можете скачивать файлы