Ссылка на приватное зеркало нашего сайта всего за 1$. Внимание количество ограничено!!!

2 сезон

iTunes

1 сезон

1

iTunes

iTunes

iTunes

1 сезон

RePack

30

ИГРА 18+

pack

ВАЖНО

!!Акция!!

Alien_RageХит недели

RePack

MK11
pack

Забери бонус

RePack

jed

!!Акция!!

Alien_Rage

RePack

fifa19

RePack

Assassins Creed: Odyssey

RePack

NEED FOR SPEED™ PAYBACK

4 сезон

9 сезон

Бесстыжие 9 сезон

Все сериалы

все сериалы на PB.wtf

RePack

FAR CRY 5
  

Линия огня / Сезон: 1 / Серии: 1-8 из 8 (Александр Калугин) [2018, Драма, криминал, HDTVRip] pb.wtf

Линия огня через торрент pb.wtf

Размер: 4.69 GB | Добавлен: 2 года 7 мес. назад | Торрент скачан:122 раза
Скачать  

08-03-2018 19:42 Линия огня Скачать торрент  

Линия огняГод выпуска: 2018
Страна: Россия
Жанр: Драма, криминал
Продолжительность: ~ 00:48:00
Субтитры: отсутствуют

Режиссер: Александр Калугин



В ролях:

Алексей Барабаш, Ирина Вальц, Анастасия Матвеева, Сергей Цепов, Руслан Ягудин, Сергей Загребнев, Михаил Стенин, Александр Фисенко, Виктория Герасимова, Яна Крайнова, Игорь Лагутин, Илья Соколовский, Сергей Погосян, Виктория Богатырёва

Описание:

Бывший следователь Токарев служит начальником караула пожарной части, оставив полицейскую работу в прошлом. Его друг юности Колосов занимается фармацевтическим бизнесом и продает дорогое медицинское оборудование. Однажды один из коллег Токарева становится инвалидом из-за неработающего аппарата искусственного дыхания, который поставила в больницу компания его товарища. Стремясь разобраться в ситуации, бывший полицейский приезжает к другу и оказывается в самом центре криминальной драмы: Колосова убивают, а главной подозреваемой становится его супруга. Перед смертью бизнесмен пристраивает своего приемного сына Дениса на работу в пожарную часть. Теперь Токареву и Денису придется привыкать друг к другу и вместе заниматься не только тушением пожаров, но и расследованием убийства Колосова…

Качество: HDTVRip
Формат: AVI

Видео: XviD, ~ 1600 Кбит/с, 720x400
Аудио#1: AC3, 2 ch, 192 Кбит/с
Общее
Полное имя : E:\Linija.ognia.2017.HDTVRip.Files-x\01.Linija.ognia.2017.HDTVRip.Files-x.avi
Формат : AVI
Формат/Информация : Audio Video Interleave
Размер файла : 600 Мбайт
Продолжительность : 48 м. 41 с.
Общий поток : 1724 Кбит/сек
Программа кодирования : VirtualDubMod 1.5.10.3 | www.virtualdub-fr.org || (build 2550/release)
Библиотека кодирования : VirtualDubMod build 2550/release

Видео
Идентификатор : 0
Формат : MPEG-4 Visual
Профиль формата : Advanced Simple@L5
Настройки формата : BVOP1 / Custom Matrix
Параметр BVOP формата : 1
Параметр QPel формата : Нет
Параметр GMC формата : Без точки перехода
Параметр матрицы формата : Выборочная
Идентификатор кодека : XVID
Идентификатор кодека/Подсказка : XviD
Продолжительность : 48 м. 41 с.
Битрейт : 1522 Кбит/сек
Ширина : 720 пикселей
Высота : 400 пикселей
Соотношение сторон : 16:9
Частота кадров : 25,000 кадров/сек
Цветовое пространство : YUV
Субдискретизация насыщенности : 4:2:0
Битовая глубина : 8 бит
Тип развёртки : Прогрессивная
Метод сжатия : С потерями
Бит/(Пиксели*Кадры) : 0.211
Размер потока : 530 Мбайт (88%)
Библиотека кодирования : XviD 73

Аудио
Идентификатор : 1
Формат : AC-3
Формат/Информация : Audio Coding 3
Идентификатор кодека : 2000
Продолжительность : 48 м. 41 с.
Вид битрейта : Постоянный
Битрейт : 192 Кбит/сек
Каналы : 2 канала
Расположение каналов : Front: L R
Частота : 48,0 КГц
Частота кадров : 31,250 кадров/сек (1536 SPF)
Битовая глубина : 16 бит
Метод сжатия : С потерями
Размер потока : 66,9 Мбайт (11%)
Выравнивание : Разделение по промежуткам
Продолжительность промежутка : 40 мс. (1,00 видеокадр)
Время предзагрузки промежутка : 500 мс.
ServiceKind/String : Complete Main

Внимание! Раздача ведётся путём добавления новых серий; при каждом добавлении создаётся новый торрент. Чтобы начать докачку новой серии, пользователям необходимо сделать следующее:
(1) остановить скачивание,
(2) удалить старый торрент у себя из клиента (старые серии удалять не надо),
(3) скачать новый торрент и запустить его у себя в клиенте вместо старого, при этом указать клиенту путь в старую папку куда и должно происходить скачивание новых серий.
Ваш клиент при этом должен произвести хеширование (проверку) старой папки (если не производит сам - помогите ему сделать это), и будет докачивать только те серии которых у вас ещё нет. Старые серии при этом не удаляются, а продолжают раздаваться!
Eсли вы уже удалили старые серии, то предотвратить повторную закачку старых серий можно, отжав галочку в соответствующих местах при запуске нового торрента. По возможности, желательно не удалять старые серии как можно дольше чтобы релизёр не столько продолжал раздавать старые серии, а смог сконцентрироваться на новых.

скриншот   скриншот   скриншот   скриншот   скриншот   скриншот   скриншот  
скриншот  
pb.wtf



Скачать Линия огня через торрент http://img12.lostpic.net/2018/03/08/8ce748ff380aa4f31b910ceaf83ad295.jpg Скачать фильм Линия огня через торрент бесплантно в хорошем качестве Описание: Бывший следователь Токарев служит начальником караула пожарной части, оставив полицейскую работу в прошлом. Его друг юности ... 8.5 10 10
Торрент: Зарегистрирован [2018-03-10 04:24] · скачан: 122 раз
Статус: √ проверено
Размер: 4.69 GB
Как cкачать? Как скачать Линия огня через торрент | qTorrent

% Раздел Тема Автор DL S | L
Наши сериалы [ 5.29 GB ] Линия огня / Сезон: 1 / Серии: 1-8 из 8 [2018 SATRip] bober100 Скачать
1 | 0

28-11-2019 20:33  

Отключить всю рекламу на сайте

    Дорогой пользователь! Огромная просьба, поблагодарите релизера, оцените раздачу и оставьте свои комментарий, если Вы скачали Линия огня через торрент бесплатно! Внесите свою лепту в развитие PiratBit!
    Комментировать посты могут только пользователи прошедшие не сложную регистрацию
    Показать сообщения:    

    Линия огня через торрент
    Скачать бесплатно Линия огня
    Линия огня скачать торрент
    Линия огня смотреть онлайн
    Cкачать фильм Линия огня бесплатно
    Линия огня скачать торрент в хорошем качестве
    Линия огня смотреть онлайн бесплатно в хорошем качестве


    Вы не можете начинать темы
    Вы не можете отвечать на сообщения
    Вы не можете редактировать свои сообщения
    Вы не можете удалять свои сообщения
    Вы не можете голосовать в опросах
    Вы не можете прикреплять файлы к сообщениям
    Вы можете скачивать файлы