1 сезон

3 сезон

iTunes

1

Line

MVO

iTunes

13

1 сезон

RePack

30

Deluxe

pack

Лицензия

ВАЖНО

ИГРА 18+

pack

RePack

MK11

RePack

jed

RePack

fifa19

RePack

RDR2

RePack

NEED FOR SPEED™ PAYBACK

4 сезон

9 сезон

Бесстыжие 9 сезон

Все сериалы

все сериалы на PB.wtf

RePack

FAR CRY 5

Anonymous, доброе утро, мы катастрофически не успеваем собрать деньги на оплату серверов, помогите нам пожалуйста 5,10,15р., для нас важна любая помощь . В качестве благодарности мы отключим Вам всю рекламу на сайте (укажите свой ник в строку Ваше имя)!

×
  
Magnet ссылка

Под откос / Derailed (Боб Мисиоровски) [2002, боевик, триллер, BDRip-AVC, R.G.Resident] DVO, AVO pb.wtf

Под откос через торрент pb.wtf

Размер: 3.84 GB | Добавлен: 3 года 4 мес. назад | Торрент скачан:89 раз
Скачать  

09-03-2018 11:31 Под откос Скачать торрент  

Под откос / Derailed
««Кто остановит смертоносный экспресс?»»

Год выпуска: 2002
Страна: Аруба, США
Жанр: боевик, триллер
Продолжительность: 01:28:39
Перевод: Профессиональный (двухголосый, закадровый), авторский (одноголосый закадровый)
Субтитры: русские (full) х 2, английские (full)
Режиссер: Боб Мисиоровски
В ролях:

Жан-Клод Ван Дамм (Jacques Kristoff), Томас Арана (Mason Cole), Лаура Хэрринг (Galina Konstantin), Сьюзэн Гибни (Madeline Kristoff), Люси Дженнер (Natasha), Джессика Боуман (Bailey Kristoff), Кристофер Ван Варенберг (Ethan Kristoff), Джон Бишоп (Bob Sterling), Бинки ван Билдербик (Angus Riley), Дэйтон Калли (Lars), Симона Левин (Catherine), Сандра Видал (Cynthia)
Описание:
Новое спецзадание по плечу гениальному оперативнику НАТО Жаку Кристофу. Он должен сопроводить из Словакии в Германию неуловимую воровку Галину, но он не подозревает, что эта рутинная работа станет самой опасной в его карьере.
Мировая премьера: 28 августа 2002

MPAA: R - Лицам до 17 лет обязательно присутствие взрослого
Качество: BDRip-AVC Rip by
Формат: MKV
Видео: AVC, 1024x576 (16:9), 4866 kbps, 23,976 fps, 0,344 bpp
Аудио №1: русский / AC3 / 5.1 / 48 kHz / 448 kbps / Профессиональный (двухголосый, закадровый) (R5)
Аудио №2: русский / AC3 / 5.1 / 48 kHz / 448 kbps / Авторский одноголосый (Л. Володарский)
Аудио №3: английский / AC3 / 5.1 / 48 kHz / 448 kbps / Оригинал
General
Unique ID : 231816304236282985229516094808718100552 (0xAE663239AD5B9584B897C9EE0C24C848)
Complete name : D:\download\Derailed.2002.BDRip-AVC by schultz R.G.Resident.mkv
Format : Matroska
Format version : Version 4 / Version 2
File size : 3.84 GiB
Duration : 1 h 28 min
Overall bit rate : 6 208 kb/s
Encoded date : UTC 2018-03-09 11:03:31
Writing application : mkvmerge v8.9.0 ('Father Daughter') 64bit
Writing library : libebml v1.3.3 + libmatroska v1.4.4

Video
ID : 1
Format : AVC
Format/Info : Advanced Video Codec
Format profile : High@L4.1
Format settings, CABAC : Yes
Format settings, ReFrames : 10 frames
Codec ID : V_MPEG4/ISO/AVC
Duration : 1 h 28 min
Bit rate : 4 866 kb/s
Width : 1 024 pixels
Height : 576 pixels
Display aspect ratio : 16:9
Frame rate mode : Constant
Frame rate : 23.976 FPS
Color space : YUV
Chroma subsampling : 4:2:0
Bit depth : 8 bits
Scan type : Progressive
Bits/(Pixel*Frame) : 0.344
Stream size : 3.01 GiB (78%)
Writing library : x264 core 146 r2538 121396c
Encoding settings : cabac=1 / ref=10 / deblock=1:-3:-3 / analyse=0x3:0 / me=umh / subme=11 / psy=1 / psy_rd=1.00:0.00 / mixed_ref=1 / me_range=32 / chroma_me=1 / trellis=2 / 8x8dct=1 / cqm=0 / deadzone=21,11 / fast_pskip=0 / chroma_qp_offset=-2 / threads=12 / lookahead_threads=3 / sliced_threads=0 / nr=0 / decimate=0 / interlaced=0 / bluray_compat=0 / constrained_intra=0 / bframes=12 / b_pyramid=2 / b_adapt=2 / b_bias=0 / direct=3 / weightb=1 / open_gop=0 / weightp=2 / keyint=240 / keyint_min=23 / scenecut=40 / intra_refresh=0 / rc_lookahead=40 / rc=2pass / mbtree=0 / bitrate=4866 / ratetol=1.0 / qcomp=0.60 / qpmin=0 / qpmax=69 / qpstep=4 / cplxblur=20.0 / qblur=0.5 / vbv_maxrate=50000 / vbv_bufsize=62500 / nal_hrd=none / filler=0 / ip_ratio=1.40 / pb_ratio=1.30 / aq=1:1.00
Language : English
Default : Yes
Forced : No

Audio #1
ID : 2
Format : AC-3
Format/Info : Audio Coding 3
Mode extension : CM (complete main)
Format settings, Endianness : Big
Codec ID : A_AC3
Duration : 1 h 28 min
Bit rate mode : Constant
Bit rate : 448 kb/s
Channel(s) : 6 channels
Channel positions : Front: L C R, Side: L R, LFE
Sampling rate : 48.0 kHz
Frame rate : 31.250 FPS (1536 spf)
Compression mode : Lossy
Stream size : 284 MiB (7%)
Title : DVO R5
Language : Russian
Default : Yes
Forced : No

Audio #2
ID : 3
Format : AC-3
Format/Info : Audio Coding 3
Mode extension : CM (complete main)
Format settings, Endianness : Big
Codec ID : A_AC3
Duration : 1 h 28 min
Bit rate mode : Constant
Bit rate : 448 kb/s
Channel(s) : 6 channels
Channel positions : Front: L C R, Side: L R, LFE
Sampling rate : 48.0 kHz
Frame rate : 31.250 FPS (1536 spf)
Compression mode : Lossy
Stream size : 284 MiB (7%)
Title : AVO Л. Володарский
Language : Russian
Default : No
Forced : No

Audio #3
ID : 4
Format : AC-3
Format/Info : Audio Coding 3
Mode extension : CM (complete main)
Format settings, Endianness : Big
Codec ID : A_AC3
Duration : 1 h 28 min
Bit rate mode : Constant
Bit rate : 448 kb/s
Channel(s) : 6 channels
Channel positions : Front: L C R, Side: L R, LFE
Sampling rate : 48.0 kHz
Frame rate : 31.250 FPS (1536 spf)
Compression mode : Lossy
Stream size : 284 MiB (7%)
Title : Оригинал
Language : English
Default : No
Forced : No

Text #1
ID : 5
Format : UTF-8
Codec ID : S_TEXT/UTF8
Codec ID/Info : UTF-8 Plain Text
Duration : 1 h 23 min
Bit rate : 70 b/s
Count of elements : 758
Stream size : 43.1 KiB (0%)
Title : full
Language : Russian
Default : No
Forced : No

Text #2
ID : 6
Format : UTF-8
Codec ID : S_TEXT/UTF8
Codec ID/Info : UTF-8 Plain Text
Duration : 1 h 23 min
Bit rate : 57 b/s
Count of elements : 749
Stream size : 35.2 KiB (0%)
Title : full
Language : Russian
Default : No
Forced : No

Text #3
ID : 7
Format : UTF-8
Codec ID : S_TEXT/UTF8
Codec ID/Info : UTF-8 Plain Text
Duration : 1 h 23 min
Bit rate : 27 b/s
Count of elements : 638
Stream size : 17.0 KiB (0%)
Title : full
Language : English
Default : No
Forced : No

Menu
00:00:00.000 : en:Chapter 1
00:08:40.061 : en:Chapter 2
00:16:53.721 : en:Chapter 3
00:24:01.481 : en:Chapter 4
00:32:26.027 : en:Chapter 5
00:39:01.338 : en:Chapter 6
00:47:00.234 : en:Chapter 7
00:56:43.191 : en:Chapter 8
01:03:13.789 : en:Chapter 9
01:11:22.152 : en:Chapter 10
01:17:06.455 : en:Chapter 11
01:24:36.362 : en:Chapter 12

pb.wtf



Скачать Под откос через торрент http://i77.fastpic.ru/big/2016/0417/a7/808a646271c761f7c7d87df3d366b3a7.png Скачать фильм Под откос через торрент бесплантно в хорошем качестве Описание: Новое спецзадание по плечу гениальному оперативнику НАТО Жаку Кристофу. Он должен сопроводить из Словакии в Германию неуловимую ... 10 10 2
Info! Золотая раздача, скачанное не засчитывается.
Торрент: Зарегистрирован [2018-03-09 11:31] · скачан: 89 раз
Статус: √ проверено
Размер: 3.84 GB
Как cкачать? Как скачать Под откос через торрент | UTorrent

28-11-2019 20:33  

Отключить всю рекламу на сайте

    Дорогой пользователь! Огромная просьба, поблагодарите релизера, оцените раздачу и оставьте свои комментарий, если Вы скачали Под откос через торрент бесплатно! Внесите свою лепту в развитие PiratBit!
    Комментировать посты могут только пользователи прошедшие не сложную регистрацию
    Показать сообщения:    

    Под откос через торрент
    Скачать бесплатно Под откос
    Под откос скачать торрент
    Под откос смотреть онлайн
    Cкачать фильм Под откос бесплатно
    Под откос скачать торрент в хорошем качестве
    Под откос смотреть онлайн бесплатно в хорошем качестве


    Вы не можете начинать темы
    Вы не можете отвечать на сообщения
    Вы не можете редактировать свои сообщения
    Вы не можете удалять свои сообщения
    Вы не можете голосовать в опросах
    Вы не можете прикреплять файлы к сообщениям
    Вы можете скачивать файлы