Ссылка на приватное зеркало всего за 1$. Внимание количество ограничено!!!

OK

1+1

iTunes

мы

OK

1

WEB-DLRip

Джокер

Пифагор

Ведьмак / The Witcher сериал

iTunes

ПШазам

ОК

Оно 2

iTunes

30
pack

Вам бонус

ВАЖНО

!!Акция!!

Alien_RageХит недели

RePack

Resident Evil 21

ИГРА 18+

pack

RePack

jed

RePack

fifa19

RePack

Assassins Creed: Odyssey

RePack

NEED FOR SPEED™ PAYBACK

4 сезон

9 сезон

Бесстыжие 9 сезон

Все сериалы

все сериалы на PB.wtf

RePack

FAR CRY 5
  

Роковая измена / Infidelity in Suburbia (Дэвид Уиннинг) [2017, триллер, BDRip 720p] MVO ["Синема УС"] pb.wtf

Роковая измена через торрент pb.wtf

Размер: 4.02 GB | Добавлен: 1 год 10 мес. назад | Торрент скачан:117 раз
Скачать  

09-03-2018 16:26 Роковая измена Скачать торрент  

Роковая измена / Infidelity in SuburbiaГод выпуска: 2017
Страна: Канада
Жанр: триллер
Продолжительность: 01:30:34
Перевод: Любительский (многоголосый) ["Синема УС"]
Субтитры: отсутствуют

Режиссер: Дэвид Уиннинг

rating

В ролях:

Сара Батлер, Маркус Роснер, Питер Бенсон, Арло Хайду, Миранда Фригон, Джей Хиндл, Джейсон Уилльям Ли, Лиэм Хьюз, Люси Гест

Описание:

Пока муж Лоры на работе, а ее ребенок в школе, она мечтает полностью переделать кухню, чтобы не скучать целыми днями одной. Они с мужем нанимают Элиота, подрядчика, что берется за переделку кухни, а также за исполнение более запретных желаний Лоры. Но Лора и понятия не имеет, во что ей обернется вся эта переделка.

Качество: BDRip 720p
Формат: MKV

Видео: 5910 Kбит/с, 1280x720
Аудио#1: Русский, (AC3, 2 ch, 448 Кбит/с)
скриншот  скриншот  скриншот  

Общее
Уникальный идентификатор : 193172421445972225217362532094877879425 (0x9153A7B3EDFEECDE9D9CEA586143CC81)
Полное имя : F:\Infidelity.in.suburbia.2017.P.BDRip.72Op_KOSHARA.mkv
Формат : Matroska
Версия формата : Version 2
Размер файла : 4,02 Гбайт
Продолжительность : 1 ч. 30 м.
Режим общего битрейта : Переменный
Общий поток : 6360 Кбит/сек
Дата кодирования : UTC 2018-03-09 00:32:21
Программа кодирования : mkvmerge v8.3.0 ('Over the Horizon') 64bit
Библиотека кодирования : libebml v1.3.1 + libmatroska v1.4.2

Видео
Идентификатор : 1
Формат : AVC
Формат/Информация : Advanced Video Codec
Профиль формата : High@L4.1
Настройки формата : CABAC / 4 Ref Frames
Параметр CABAC формата : Да
Параметр RefFrames формата : 4 кадра
Идентификатор кодека : V_MPEG4/ISO/AVC
Продолжительность : 1 ч. 30 м.
Вид битрейта : Переменный
Битрейт : 5910 Кбит/сек
Максимальный битрейт : 6700 Кбит/сек
Ширина : 1280 пикселей
Высота : 720 пикселей
Соотношение сторон : 16:9
Режим частоты кадров : Постоянный
Частота кадров : 23,976 (24000/1001) кадра/сек
Стандарт вещания : Component
Цветовое пространство : YUV
Субдискретизация насыщенности : 4:2:0
Битовая глубина : 8 бит
Тип развёртки : Прогрессивная
Бит/(Пиксели*Кадры) : 0.262
Размер потока : 3,66 Гбайт (91%)
Default : Да
Forced : Нет
Цветовой диапазон : Limited
Основные цвета : BT.709
Характеристики трансфера : BT.709
Коэффициенты матрицы : BT.709

Аудио
Идентификатор : 2
Формат : AC-3
Формат/Информация : Audio Coding 3
Идентификатор кодека : A_AC3
Продолжительность : 1 ч. 30 м.
Вид битрейта : Постоянный
Битрейт : 448 Кбит/сек
Каналы : 2 канала
Расположение каналов : Front: L R
Частота : 48,0 КГц
Частота кадров : 31,250 кадров/сек (1536 SPF)
Битовая глубина : 16 бит
Метод сжатия : С потерями
Размер потока : 290 Мбайт (7%)
ServiceKind/String : Complete Main
Default : Да
Forced : Нет

pb.wtf



Скачать Роковая измена через торрент http://img12.lostpic.net/2018/03/09/b722c3792e3946945b4848367f0aafa3.jpg Скачать фильм Роковая измена через торрент бесплантно в хорошем качестве Описание: Пока муж Лоры на работе, а ее ребенок в школе, она мечтает полностью переделать кухню, чтобы не скучать целыми днями одной. Они с ... 10 10 3
Торрент: Зарегистрирован [2018-03-09 16:26] · скачан: 117 раз
Статус: # сомнительно
Размер: 4.02 GB
Как cкачать? Как скачать Роковая измена через торрент | qTorrent

% Раздел Тема Автор DL S | L
T Фильмы (мультфильмы) cо спонсором показа (Новинки AVI/MKV) [ 1.37 GB ] Роковая измена / Infidelity in Suburbia [2017 HDRip] MVO ["Синема УС"] bober100 Скачать
1 | 0

28-11-2019 20:33  

Отключить всю рекламу на сайте


10-03-2018 14:01 Роковая измена Скачать торрент  

в сэмпле ни одного слова чтобы перевод послушать pb.wtf



11-03-2018 05:12 Роковая измена Скачать торрент  

Исаак писал(а):

в сэмпле ни одного слова чтобы перевод послушать

фильм без перевода?pb.wtf



    Дорогой пользователь! Огромная просьба, поблагодарите релизера, оцените раздачу и оставьте свои комментарий, если Вы скачали Роковая измена через торрент бесплатно! Внесите свою лепту в развитие PiratBit!
    Комментировать посты могут только пользователи прошедшие не сложную регистрацию
    Показать сообщения:    

    Роковая измена через торрент
    Скачать бесплатно Роковая измена
    Роковая измена скачать торрент
    Роковая измена смотреть онлайн
    Cкачать фильм Роковая измена бесплатно
    Роковая измена скачать торрент в хорошем качестве
    Роковая измена смотреть онлайн бесплатно в хорошем качестве


    Вы не можете начинать темы
    Вы не можете отвечать на сообщения
    Вы не можете редактировать свои сообщения
    Вы не можете удалять свои сообщения
    Вы не можете голосовать в опросах
    Вы не можете прикреплять файлы к сообщениям
    Вы можете скачивать файлы