Ссылка на приватное зеркало всего за 1$. Внимание количество ограничено!!!

OK

1+1

iTunes

мы

OK

1

WEB-DLRip

Джокер

Пифагор

Ведьмак / The Witcher сериал

Лицензия

ПШазам

ОК

Оно 2

iTunes

30
pack

Вам бонус

ВАЖНО

!!Акция!!

Alien_RageХит недели

RePack

Resident Evil 21

ИГРА 18+

pack

RePack

jed

RePack

fifa19

RePack

Assassins Creed: Odyssey

RePack

NEED FOR SPEED™ PAYBACK

4 сезон

9 сезон

Бесстыжие 9 сезон

Все сериалы

все сериалы на PB.wtf

RePack

FAR CRY 5
  

Девушка в тумане / La ragazza nella nebbia (Донато Карризи) [2017, триллер, криминал, BDRip 720p] DUB [iTunes] pb.wtf

Девушка в тумане через торрент pb.wtf

Раздают: 2 [ 0 KB/s ]
Размер: 8.5 GB | Добавлен: 1 год 10 мес. назад | Торрент скачан:1981 раз
Скачать  

10-03-2018 03:55 Девушка в тумане Скачать торрент  

Девушка в тумане / La ragazza nella nebbia Год выпуска: 2017
Страна: Италия, Германия, Франция
Жанр: триллер, криминал
Продолжительность: 02:09:01
Перевод: Дублированный | iTunes
Субтитры: английские (full)

Режиссер: Донато Карризи

rating

В ролях:

Тони Сервилло, Жан Рено, Алессио Бони, Лоренцо Рикельми, Галатеа Ранци, Микела Ческон, Лукреция Гидоне, Даниэла Пьяцца, Якопо Ольмо Антинори, Марина Оккьонеро

Описание:

Холодной зимней ночью психиатра Аугусто Флореса срочно вызывают на работу, чтобы обследовать попавшего в аварию инспектора Фогеля. Инспектор ничего не помнит, на месте аварии ничто не указывает на ее причину и на ее жертв, однако рубашка Фогеля в пятнах свежей крови, и эта кровь не его. В ходе беседы начинает восстанавливаться цепь невероятных событий, начавшихся месяц назад.

Затерянный в Альпах сонный городок, рождественский вечер, туман. 16-летняя девушка Анна Лу, выйдя из дома, до празднично украшенной церкви так и не дошла. Нет ни тела жертвы, ни каких-либо следов борьбы, ни свидетелей - ничего. Вскоре в городе появляется инспектор Фогель, звезда сыска, специалист по поимке маньяков и серийных убийц...

Качество: BDRip 720p
Формат: MKV

Видео: 8267 kb/s, 1280x534, 23.976 fps
Аудио#1: Russian AC3, 384 kb/s (6 ch)
Аудио#2: Italian: AC3, 640 kb/s (6 ch)
скриншот   скриншот   скриншот   скриншот  

Общее
Уникальный идентификатор : 181987007654102563671181976521247541055 (0x88E96C398B2D18398B3FC7478167C73F)
Полное имя : D:ЗаготовкиLa.Ragazza.Nella.Nebbia.2017.D.BDRip.720p.mkv
Формат : Matroska
Версия формата : Version 2
Размер файла : 8,50 Гбайт
Продолжительность : 2 ч. 8 м.
Общий поток : 9479 Кбит/сек
Дата кодирования : UTC 2018-03-09 21:37:50
Программа кодирования : mkvmerge v7.8.0 ('River Man') 32bit built on Apr 3 2015 12:11:22
Библиотека кодирования : libebml v1.3.1 + libmatroska v1.4.2

Видео
Идентификатор : 1
Формат : AVC
Формат/Информация : Advanced Video Codec
Профиль формата : High@L4.1
Настройки формата : CABAC / 12 Ref Frames
Параметр CABAC формата : Да
Параметр RefFrames формата : 12 кадров
Идентификатор кодека : V_MPEG4/ISO/AVC
Продолжительность : 2 ч. 8 м.
Битрейт : 8267 Кбит/сек
Ширина : 1280 пикселей
Высота : 534 пикселя
Соотношение сторон : 2,40:1
Режим частоты кадров : Постоянный
Частота кадров : 24,000 кадра/сек
Цветовое пространство : YUV
Субдискретизация насыщенности : 4:2:0
Битовая глубина : 8 бит
Тип развёртки : Прогрессивная
Бит/(Пиксели*Кадры) : 0.504
Размер потока : 7,41 Гбайт (87%)
Заголовок : -EA
Библиотека кодирования : x264 core 155 r2867+74 66b5600 t_mod_Custom_2 [8-bit@all X86_64]
Настройки программы : cabac=1 / ref=12 / deblock=1:-3:-3 / analyse=0x3:0x113 / me=umh / subme=10 / psy=1 / fade_compensate=0.00 / psy_rd=1.04:0.00 / mixed_ref=1 / me_range=32 / chroma_me=1 / trellis=2 / 8x8dct=1 / cqm=0 / deadzone=21,11 / fast_pskip=0 / chroma_qp_offset=-2 / threads=17 / lookahead_threads=2 / sliced_threads=0 / nr=0 / decimate=0 / interlaced=0 / bluray_compat=0 / constrained_intra=0 / fgo=0 / bframes=8 / b_pyramid=2 / b_adapt=2 / b_bias=0 / direct=3 / weightb=1 / open_gop=0 / weightp=2 / keyint=240 / keyint_min=24 / scenecut=40 / intra_refresh=0 / rc_lookahead=60 / rc=crf / mbtree=0 / crf=14.5000 / qcomp=0.75 / qpmin=0:0:0 / qpmax=69:69:69 / qpstep=4 / vbv_maxrate=62500 / vbv_bufsize=78125 / crf_max=0.0 / nal_hrd=none / filler=0 / ip_ratio=1.30 / pb_ratio=1.20 / aq=3:0.80 / aq-sensitivity=10.00 / aq-factor=1.00:1.00:1.00 / aq2=1:0.70 / aq2-sensitivity=15.00 / aq2-factor=1.00:1.00:1.00 / aq3=1:[0.70:0.70]:[0.70:0.70]:[0.70:0.70]:[0.70:0.70] / aq3-sensitivity=10.00 / aq3-factor=[1.00:1.00]:[1.00:1.00]:[1.00:1.00] / aq3-boundary=192:64:24
Язык : Italian
Default : Да
Forced : Нет
Цветовой диапазон : Limited
Основные цвета : BT.709
Характеристики трансфера : BT.709
Коэффициенты матрицы : BT.709

Аудио #1
Идентификатор : 2
Формат : AC-3
Формат/Информация : Audio Coding 3
Идентификатор кодека : A_AC3
Продолжительность : 2 ч. 8 м.
Вид битрейта : Постоянный
Битрейт : 384 Кбит/сек
Каналы : 6 каналов
Расположение каналов : Front: L C R, Side: L R, LFE
Частота : 48,0 КГц
Частота кадров : 31,250 кадров/сек (1536 SPF)
Битовая глубина : 16 бит
Метод сжатия : С потерями
Размер потока : 352 Мбайт (4%)
Заголовок : iTunes
Язык : Russian
Default : Да
Forced : Нет

Аудио #2
Идентификатор : 3
Формат : AC-3
Формат/Информация : Audio Coding 3
Идентификатор кодека : A_AC3
Продолжительность : 2 ч. 8 м.
Вид битрейта : Постоянный
Битрейт : 640 Кбит/сек
Каналы : 6 каналов
Расположение каналов : Front: L C R, Side: L R, LFE
Частота : 48,0 КГц
Частота кадров : 31,250 кадров/сек (1536 SPF)
Битовая глубина : 16 бит
Метод сжатия : С потерями
Размер потока : 587 Мбайт (7%)
Заголовок : Original
Язык : Italian
Default : Нет
Forced : Нет

Текст
Идентификатор : 4
Формат : UTF-8
Идентификатор кодека : S_TEXT/UTF8
Идентификатор кодека/Информация : UTF-8 Plain Text
Заголовок : full
Язык : English
Default : Нет
Forced : Нет

Меню
00:00:00.000 : en:00:00:00.000
00:06:17.875 : en:00:06:17.875
00:15:48.042 : en:00:15:48.042
00:22:44.500 : en:00:22:44.500
00:31:22.083 : en:00:31:22.083
00:39:51.750 : en:00:39:51.750
00:47:44.417 : en:00:47:44.417
00:54:36.417 : en:00:54:36.417
01:01:11.750 : en:01:01:11.750
01:11:32.083 : en:01:11:32.083
01:18:15.792 : en:01:18:15.792
01:27:31.708 : en:01:27:31.708
01:38:13.875 : en:01:38:13.875
01:47:45.542 : en:01:47:45.542
01:57:28.083 : en:01:57:28.083

pb.wtf



Скачать Девушка в тумане через торрент http://i103.fastpic.ru/big/2018/0310/9e/546279ec93d4e76d63e882082bf5559e.jpg Скачать фильм Девушка в тумане через торрент бесплантно в хорошем качестве Описание: Холодной зимней ночью психиатра Аугусто Флореса срочно вызывают на работу, чтобы обследовать попавшего в аварию инспектора ... 9.8 10 36
Info! Золотая раздача, скачанное не засчитывается.
Торрент: Зарегистрирован [2018-03-10 03:55] · скачан: 1 981 раз
Статус: √ проверено
Размер: 8.5 GB
Как cкачать? Как скачать Девушка в тумане через торрент | qTorrent

% Раздел Тема Автор DL S | L
Фильмы 2017 [DVDrip, WEB-DLRip, HDrip] (DUB, MVO) [ 1.4 GB ] Девушка в тумане / La ragazza nella nebbia [2017 BDRip-AVC] bober100 Скачать
8 | 0
Фильмы (Blu-ray, BD-Remux, HDDVD) [ 25.78 GB ] Девушка в тумане / La ragazza nella nebbia [2017 BDRemux 1080p] sheker187 Скачать
1 | 0
Видео для КПК и Смартфонов [ 487 MB ] Девушка в тумане / La ragazza nella nebbia [2017 HDRip КПК] Dub sergey82 Скачать
1 | 0
Фильмы 2017 [DVDrip, WEB-DLRip, HDrip] (DUB, MVO) [ 1.46 GB ] Девушка в тумане / La ragazza nella nebbia [2017 BDRip] - Twi7ter Скачать
1 | 0
Фильмы 2017 [DVDrip, WEB-DLRip, HDrip] (DUB, MVO) [ 2.13 GB ] Девушка в тумане / La ragazza nella nebbia [2017 BDRip] - Twi7ter Скачать
5 | 0
Фильмы 2017 [DVDrip, WEB-DLRip, HDrip] (DUB, MVO) [ 1.46 GB ] Девушка в тумане / La ragazza nella nebbia [2017 BDRip] bober100 Скачать
2 | 0
Фильмы 2017 [DVDrip, WEB-DLRip, HDrip] (DUB, MVO) [ 2.13 GB ] Девушка в тумане / La ragazza nella nebbia [2017 BDRip] bober100 Скачать
1 | 0

28-11-2019 20:33  

Отключить всю рекламу на сайте

11-03-2018 02:13 Девушка в тумане Скачать торрент  

Чувствую добротный фильм.Посмотрим.pb.wtf



11-03-2018 11:15 Девушка в тумане Скачать торрент  

посмотрим с хорошим звуком!pb.wtf



17-05-2018 10:04 Девушка в тумане Скачать торрент  

неплохой фильмpb.wtf



    Дорогой пользователь! Огромная просьба, поблагодарите релизера, оцените раздачу и оставьте свои комментарий, если Вы скачали Девушка в тумане через торрент бесплатно! Внесите свою лепту в развитие PiratBit!
    Комментировать посты могут только пользователи прошедшие не сложную регистрацию
    Показать сообщения:    

    Девушка в тумане через торрент
    Скачать бесплатно Девушка в тумане
    Девушка в тумане скачать торрент
    Девушка в тумане смотреть онлайн
    Cкачать фильм Девушка в тумане бесплатно
    Девушка в тумане скачать торрент в хорошем качестве
    Девушка в тумане смотреть онлайн бесплатно в хорошем качестве


    Вы не можете начинать темы
    Вы не можете отвечать на сообщения
    Вы не можете редактировать свои сообщения
    Вы не можете удалять свои сообщения
    Вы не можете голосовать в опросах
    Вы не можете прикреплять файлы к сообщениям
    Вы можете скачивать файлы