новый адрес пиратбит piratbit
Мега распродажа FORZA HORIZON 4 ULTIMATE+ВСЕ DLC+ОНЛАЙН всего за 499р. 349 руб. (супер цена). Внимание количество ограничено!!!

iTunes

1+1

iTunes

мы

iTunes

1

iTunes

Чернобыль

iTunes

Ральф против интернета

Лицензия

ПШазам

Лицензия

Игра престолов

Лицензия

30
pack

ВАЖНО

!!Акция!!

Alien_RageХит недели

RePack

Resident Evil 21

ИГРА 18+

pack

RePack

Metro:Exodus

!!Акция!!

Alien_Rage

RePack

fifa19

RePack

Assassins Creed: Odyssey

RePack

NEED FOR SPEED™ PAYBACK

3 сезон

9 сезон

Бесстыжие 9 сезон

Все сериалы

все сериалы на PB.wtf

RePack

FAR CRY 5
Ребята, катастрофически не хватает 1900р. для оплаты серверов за Октябрь (всвязи с блокировками трафик упал в 3 раза), 1-2р., выручайте.
  

Женщины против мужчин: Крымские каникулы (Леонид Марголин) [2018, комедия, мелодрама, WEB-DLRip-AVC] [iTunes] pb.wtf

Женщины против мужчин: Крымские каникулы через торрент pb.wtf

Раздают: 2 [ 0 KB/s ]
Размер: 1.46 GB | Добавлен: 1 год 8 мес. назад | Торрент скачан:1376 раз
Скачать  

10-03-2018 04:01 Женщины против мужчин: Крымские каникулы Скачать торрент  

Женщины против мужчин: Крымские каникулы
Год выпуска: 2018
Страна: Россия
Жанр: комедия, мелодрама
Продолжительность: 01:15:33
Перевод: Не требуется | iTunes
Субтитры: отсутствуют

Режиссер: Леонид Марголин



В ролях:

Настасья Самбурская, Наталья Рудова, Мария Кравченко, Александр Головин, Денис Косяков, Роман Юнусов, Мария Горбань, Вадим Галыгин

Описание:

Отправиться в отпуск сразу после развода - довольно заманчивая идея. Особенно, если за компанию можно прихватить двух своих лучших приятелей. Но, когда в том же отеле встречаешь свою бывшую жену-красавицу, то это к неприятностям. А если экс-супруга оказывается там же с двумя своими лучшими подругами, которые к тому же являются бывшими женами твоих друзей, - то легкая месть за старые обиды превращается в увлекательную «войну» и незабываемые приключения.

Качество: WEB-DLRip-AVC
Формат: MKV

Видео: 1024x426 (2.40:1), 24,000 fps, x264 ~ 2367 kbps avg, 0.226 bit/pixel
Аудио: 48 kHz, AC3 Dolby Digital, 2.0 Front: L R, ~384.00 kbps avg | iTunes
скриншот   скриншот   скриншот   скриншот   скриншот   скриншот  

x264 [info]: frame I:1277 Avg QP:15.26 size: 63381
x264 [info]: frame P:45510 Avg QP:18.95 size: 20428
x264 [info]: frame B:62438 Avg QP:20.22 size: 5357

Общее
Уникальный идентификатор : 324889695820174146198229721880174106904 (0xF46B7AB8AABA7C3A8508F629F5819918)
Полное имя : D:ВидеоKPymCk1e.k4H1kuLy.2O17.WEB-DLRip(AVC).OlLanDGroup.mkv
Формат : Matroska
Версия формата : Version 4 / Version 2
Размер файла : 1,46 Гбайт
Продолжительность : 1 ч. 15 м.
Общий поток : 2751 Кбит/сек
Название фильма : KPymCk1e.k4H1kuLy.2O17.WEB-DLRip(AVC).OlLanDGroup
Дата кодирования : UTC 2018-03-10 02:04:46
Программа кодирования : mkvmerge v21.0.0 ('Tardigrades Will Inherit The Earth') 64-bit
Библиотека кодирования : libebml v1.3.5 + libmatroska v1.4.8
DURATION : 01:15:51.104000000
NUMBER_OF_FRAMES : 142222
NUMBER_OF_BYTES : 218452992
_STATISTICS_WRITING_APP : mkvmerge v21.0.0 ('Tardigrades Will Inherit The Earth') 64-bit
_STATISTICS_WRITING_DATE_UTC : 2018-03-10 02:04:46
_STATISTICS_TAGS : BPS DURATION NUMBER_OF_FRAMES NUMBER_OF_BYTES
Attachment : Yes

Видео
Идентификатор : 1
Формат : AVC
Формат/Информация : Advanced Video Codec
Профиль формата : High@L4.1
Параметр CABAC формата : Да
Параметр ReFrames формата : 10 кадров
Идентификатор кодека : V_MPEG4/ISO/AVC
Продолжительность : 1 ч. 15 м.
Битрейт : 2367 Кбит/сек
Ширина : 1024 пикселя
Высота : 426 пикселей
Соотношение сторон : 2,40:1
Режим частоты кадров : Постоянный
Частота кадров : 24,000 кадра/сек
Цветовое пространство : YUV
Субдискретизация насыщенности : 4:2:0
Битовая глубина : 8 бит
Тип развёртки : Прогрессивная
Бит/(Пиксели*Кадры) : 0.226
Размер потока : 1,23 Гбайт (84%)
Заголовок : KPymCk1e.k4H1kuLy.2O17.WEB-DLRip(AVC).OlLanDGroup
Библиотека кодирования : x264 core 146 r2538 121396c
Настройки программы : cabac=1 / ref=10 / deblock=1:-3:-3 / analyse=0x3:0x133 / me=umh / subme=11 / psy=1 / psy_rd=1.00:0.00 / mixed_ref=1 / me_range=32 / chroma_me=1 / trellis=2 / 8x8dct=1 / cqm=0 / deadzone=21,11 / fast_pskip=0 / chroma_qp_offset=-2 / threads=6 / lookahead_threads=1 / sliced_threads=0 / nr=0 / decimate=0 / interlaced=0 / bluray_compat=0 / constrained_intra=0 / bframes=10 / b_pyramid=2 / b_adapt=1 / b_bias=0 / direct=3 / weightb=1 / open_gop=0 / weightp=2 / keyint=240 / keyint_min=23 / scenecut=40 / intra_refresh=0 / rc_lookahead=40 / rc=2pass / mbtree=0 / bitrate=2367 / ratetol=1.0 / qcomp=0.60 / qpmin=0 / qpmax=69 / qpstep=4 / cplxblur=20.0 / qblur=0.5 / vbv_maxrate=50000 / vbv_bufsize=62500 / nal_hrd=none / filler=0 / ip_ratio=1.40 / pb_ratio=1.30 / aq=1:1.00
Язык : Russian
Default : Да
Forced : Нет

Аудио
Идентификатор : 2
Формат : AC-3
Формат/Информация : Audio Coding 3
Расширение режима : CM (complete main)
Параметр Endianness формата : Big
Идентификатор кодека : A_AC3
Продолжительность : 1 ч. 15 м.
Вид битрейта : Постоянный
Битрейт : 384 Кбит/сек
Каналы : 2 канала
Расположение каналов : Front: L R
Частота : 48,0 КГц
Битовая глубина : 16 бит
Метод сжатия : С потерями
Размер потока : 208 Мбайт (14%)
Язык : Russian
Default : Да
Forced : Нет

Меню
00:00:00.000 : en:Глава 1
00:06:45.666 : en:Глава 2
00:12:51.791 : en:Глава 3
00:19:51.166 : en:Глава 4
00:25:58.957 : en:Глава 5
00:31:46.082 : en:Глава 6
00:37:20.457 : en:Глава 7
00:42:37.165 : en:Глава 8
00:50:08.123 : en:Глава 9
00:55:53.873 : en:Глава 10
01:01:13.123 : en:Глава 11
01:06:33.081 : en:Глава 12

pb.wtf



Скачать Женщины против мужчин: Крымские каникулы через торрент http://pic1.kartinco.top/images/11/m5ov6.jpg Скачать фильм Женщины против мужчин: Крымские каникулы через торрент бесплантно в хорошем качестве Описание: Отправиться в отпуск сразу после развода - довольно заманчивая идея. Особенно, если за компанию можно прихватить двух своих ... 9 10 24
Info! Золотая раздача, скачанное не засчитывается.
Торрент: Зарегистрирован [2018-03-10 04:01] · скачан: 1 376 раз
Статус: T временная
Размер: 1.46 GB
Как cкачать? Как скачать Женщины против мужчин: Крымские каникулы через торрент | qTorrent

% Раздел Тема Автор DL S | L
Наши новые фильмы 2018-2019 [ 1.37 GB ] Женщины против мужчин: Крымские каникулы [2018 WEB-DLRip] bober100 Скачать
2 | 0
T Наши фильмы (HD, WEB-DL 720p, 1080p) [ 2.33 GB ] Женщины против мужчин: Крымские каникулы [2018 WEB-DL 720p] bober100 Скачать
1 | 0
T Наши фильмы (HD, WEB-DL 720p, 1080p) [ 2.71 GB ] Женщины против мужчин: Крымские каникулы [2018 WEB-DL 1080p] bober100 Скачать
1 | 0


>> Регистрируемся здесь <<






Отзывы и комментарии о схеме читаем и пишем здесь: ---> Отзывы и комментарии о схеме

Новые благодарочки в телеграм довольных пользователей:
скриншот   скриншот   скриншот   скриншот   скриншот

11-03-2018 14:38 Женщины против мужчин: Крымские каникулы Скачать торрент  

Очередной говновысер Российского кино...pb.wtf



11-03-2018 17:15 Женщины против мужчин: Крымские каникулы Скачать торрент  

Полный отстой!!! Жаль потраченное время!!!pb.wtf



12-03-2018 06:13 Женщины против мужчин: Крымские каникулы Скачать торрент  

Уж насколько я терпима к русским комедиям, но это просто днище!!!pb.wtf



    Дорогой пользователь! Огромная просьба, поблагодарите релизера, оцените раздачу и оставьте свои комментарий, если Вы скачали Женщины против мужчин: Крымские каникулы через торрент бесплатно! Внесите свою лепту в развитие PiratBit!
    Комментировать посты могут только пользователи прошедшие не сложную регистрацию
    Показать сообщения:    

    Женщины против мужчин: Крымские каникулы через торрент
    Скачать бесплатно Женщины против мужчин: Крымские каникулы
    Женщины против мужчин: Крымские каникулы скачать торрент
    Женщины против мужчин: Крымские каникулы смотреть онлайн
    Cкачать фильм Женщины против мужчин: Крымские каникулы бесплатно
    Женщины против мужчин: Крымские каникулы скачать торрент в хорошем качестве
    Женщины против мужчин: Крымские каникулы смотреть онлайн бесплатно в хорошем качестве


    Вы не можете начинать темы
    Вы не можете отвечать на сообщения
    Вы не можете редактировать свои сообщения
    Вы не можете удалять свои сообщения
    Вы не можете голосовать в опросах
    Вы не можете прикреплять файлы к сообщениям
    Вы можете скачивать файлы