Ссылка на приватное зеркало нашего сайта всего за 1$. Внимание количество ограничено!!!

2 сезон

iTunes

1 сезон

1

2 сезон

2 сезон

iTunes

1 сезон

RePack

30

Новинка

ВАЖНО

ИГРА 18+

pack

RePack

MK11
pack

Забери бонус

RePack

jed

!!Акция!!

Alien_Rage

RePack

fifa19

RePack

Assassins Creed: Odyssey

RePack

NEED FOR SPEED™ PAYBACK

4 сезон

9 сезон

Бесстыжие 9 сезон

Все сериалы

все сериалы на PB.wtf

RePack

FAR CRY 5
  

Джессика Джонс / Jessica Jones / Сезон: 2 / Серии: 1-13 из 13 (С.Дж. Кларксон, Дэвид Петрарка, Стивен Серджик) [2018, Фантастика, боевик, драма, криминал, WEBRip] [MVO] (Profix Media) pb.wtf

Джессика Джонс через торрент pb.wtf

Размер: 7.88 GB | Добавлен: 2 года 8 мес. назад | Торрент скачан:24 раза
Скачать  

10-03-2018 08:40 Джессика Джонс Скачать торрент  

Джессика ДжонсJessica Jones Год выпуска: 2018
Страна: США
Жанр: Фантастика, боевик, драма, криминал
Продолжительность: ~00:50:00
Перевод: Профессиональный (многоголосый закадровый) Студия «Profix Media»

Режиссёр: С.Дж. Кларксон, Дэвид Петрарка, Стивен Серджик

В ролях: Кристен Риттер, Дэвид Теннант, Майк Колтер, Рэйчел Тейлор, Кэрри-Энн Мосс, Эйка Дарвилл, Эрин Мориарти, Уил Трэвэл, Сьюзи Абромейт, Фил Каппадора

Описание: После трагических событий, оборвавших короткую супергеройскую карьеру Джессики Джонс, девушка пытается восстановить свою личную жизнь и свою карьеру частного детектива, расследуя таинственную активность людей со сверхспособностями в Нью-Йорке.



Автор рипа -- JuSSiKa

Качество: WEBRip
Формат: AVI
Видео: XviD, 720x400 (16:9), 23,976 fps, ~1500 kbps
Аудио Rus: MP3, 48 kHz, 2 ch, 128 kbps
Аудио Eng: MP3, 48 kHz, 2 ch, 128 kbps
Субтитры: отсутствуют
Полное имя                               : Jessica Jones.S02.WEBRip.RusEng.Profix.Media\Jessica Jones.S02E01.WEBRip.RusEng.Profix.Media.L.avi
Формат                                   : AVI
Формат/Информация                        : Audio Video Interleave
Размер файла                             : 640 Мбайт
Продолжительность                        : 52 м. 50 с.
Общий поток                              : 1694 Кбит/сек
Программа кодирования                    : VirtualDubMod 1.5.10.3 (build 2550/release)
Библиотека кодирования                   : VirtualDubMod build 2550/release

Видео
Идентификатор                            : 0
Формат                                   : MPEG-4 Visual
Профиль формата                          : Advanced Simple@L5
Настройки формата                        : BVOP1
Параметр BVOP формата                    : 1
Параметр QPel формата                    : Нет
Параметр GMC формата                     : Без точки перехода
Параметр матрицы формата                 : Default (H.263)
Идентификатор кодека                     : XVID
Идентификатор кодека/Подсказка           : XviD
Продолжительность                        : 52 м. 50 с.
Битрейт                                  : 1424 Кбит/сек
Ширина                                   : 720 пикселей
Высота                                   : 400 пикселей
Соотношение сторон                       : 16:9
Частота кадров                           : 23,976 (24000/1001) кадра/сек
Цветовое пространство                    : YUV
Субдискретизация насыщенности            : 4:2:0
Битовая глубина                          : 8 бит
Тип развёртки                            : Прогрессивная
Метод сжатия                             : С потерями
Бит/(Пиксели*Кадры)                      : 0.206
Размер потока                            : 538 Мбайт (84%)
Библиотека кодирования                   : XviD 1.2.1 (UTC 2008-12-04)

Аудио #1
Идентификатор                            : 1
Формат                                   : MPEG Audio
Версия формата                           : Version 1
Профиль формата                          : Layer 3
Настройки формата                        : Joint stereo / MS Stereo
Режим                                    : Joint stereo
Расширение режима                        : MS Stereo
Идентификатор кодека                     : 55
Идентификатор кодека/Подсказка           : MP3
Продолжительность                        : 52 м. 50 с.
Вид битрейта                             : Постоянный
Битрейт                                  : 128 Кбит/сек
Каналы                                   : 2 канала
Частота                                  : 48,0 КГц
Метод сжатия                             : С потерями
Размер потока                            : 48,4 Мбайт (8%)
Выравнивание                             : Соединение по промежуткам
Продолжительность промежутка             : 42  мс. (1,00 видеокадр)
Время предзагрузки промежутка            : 504  мс.

Аудио #2
Идентификатор                            : 2
Формат                                   : MPEG Audio
Версия формата                           : Version 1
Профиль формата                          : Layer 3
Настройки формата                        : Joint stereo / MS Stereo
Режим                                    : Joint stereo
Расширение режима                        : MS Stereo
Идентификатор кодека                     : 55
Идентификатор кодека/Подсказка           : MP3
Продолжительность                        : 52 м. 50 с.
Вид битрейта                             : Постоянный
Битрейт                                  : 128 Кбит/сек
Каналы                                   : 2 канала
Частота                                  : 48,0 КГц
Метод сжатия                             : С потерями
Размер потока                            : 48,4 Мбайт (8%)
Выравнивание                             : Соединение по промежуткам
Продолжительность промежутка             : 42  мс. (1,00 видеокадр)
Время предзагрузки промежутка            : 504  мс.
скриншот  скриншот  скриншот  
Внимание! Раздача ведётся путём добавления новых серий; при каждом добавлении создаётся новый торрент. Чтобы начать докачку новой серии, пользователям необходимо сделать следующее:
(1) остановить скачивание,
(2) удалить старый торрент у себя из клиента (старые серии удалять не надо),
(3) скачать новый торрент и запустить его у себя в клиенте вместо старого, при этом указать клиенту путь в старую папку куда и должно происходить скачивание новых серий.

Ваш клиент при этом должен произвести хеширование (проверку) старой папки (если не производит сам - помогите ему сделать это), и будет докачивать только те серии которых у вас ещё нет. Старые серии при этом не удаляются, а продолжают раздаваться!

Eсли вы уже удалили старые серии, то предотвратить повторную закачку старых серий можно, отжав галочку в соответствующих местах при запуске нового торрента. По возможности, желательно не удалять старые серии как можно дольше чтобы релизёр не столько продолжал раздавать старые серии, а смог сконцентрироваться на новых.
pb.wtf



Скачать Джессика Джонс через торрент http://i101.fastpic.ru/big/2018/0309/82/919f34e3067fd4c0c33baa4c17a2e182.png Скачать фильм Джессика Джонс через торрент бесплантно в хорошем качестве Описание: После трагических событий, оборвавших короткую супергеройскую карьеру Джессики Джонс, девушка пытается восстановить свою личную ... 10 10 2
Торрент: Зарегистрирован [2018-03-30 11:01] · скачан: 24 раз
Статус: √ проверено
Размер: 7.88 GB
Как cкачать? Как скачать Джессика Джонс через торрент | qTorrent

% Раздел Тема Автор DL S | L
Зарубежные сериалы [ 121.38 GB ] Джессика Джонс / Jessica Jones / Сезон: 2 / Серии: 1-13 из 13 [2018 UHD WEBRip 2160p] 4xMVO sheker187 Скачать
1 | 0
Зарубежные сериалы [ 13.07 GB ] Джессика Джонс / Jessica Jones / Сезон: 2 / Серии: 1-13 из 13 [2018 WEBRip] [MVO] killermax2013 Скачать
1 | 0
Зарубежные сериалы [ 56.33 GB ] Джессика Джонс / Jessica Jones / Сезон: 2 / Серии: 1-13 из 13 [2018 WEB-DL 720p] MVO [NewStudio] bober100 Скачать
1 | 0
Зарубежные сериалы [ 22.48 GB ] Джессика Джонс / Jessica Jones / Сезон: 2 / Серии: 1-13 из 13 [2018 WEBRip 1080p] [MVO] killermax2013 Скачать
1 | 0
Зарубежные сериалы [ 8.33 GB ] Джессика Джонс / Jessica Jones / Сезон: 2 / Серии: 1-13 из 13 [2018 WEBRip] [MVO] killermax2013 Скачать
1 | 0
Зарубежные сериалы [ 108.02 GB ] Джессика Джонс / Jessica Jones / Сезон: 2 / Серии: 1-13 из 13 [2018 WEBRip 1080p] MVO [NewStudio] bober100 Скачать
1 | 0
Зарубежные сериалы [ 8.92 GB ] Джессика Джонс / Jessica Jones / Сезон: 2 / Серии: 1-13 из 13 [2018 WEB-DLRip] MVO [NewStudio] bober100 Скачать
1 | 0


Последний раз редактировалось: killermax2013 (2018-03-30 11:01), всего редактировалось 3 раз(а)

28-11-2019 20:33  

Отключить всю рекламу на сайте

14-03-2018 14:37 Джессика Джонс Скачать торрент  

+2pb.wtf



20-03-2018 16:01 Джессика Джонс Скачать торрент  

+3-5pb.wtf



26-03-2018 18:30 Джессика Джонс Скачать торрент  

+6-9pb.wtf



30-03-2018 11:01 Джессика Джонс Скачать торрент  

+10-13pb.wtf



30-03-2018 17:01 Джессика Джонс Скачать торрент  

Ну и где раздающий? pb.wtf



    Дорогой пользователь! Огромная просьба, поблагодарите релизера, оцените раздачу и оставьте свои комментарий, если Вы скачали Джессика Джонс через торрент бесплатно! Внесите свою лепту в развитие PiratBit!
    Комментировать посты могут только пользователи прошедшие не сложную регистрацию
    Показать сообщения:    

    Джессика Джонс через торрент
    Скачать бесплатно Джессика Джонс
    Джессика Джонс скачать торрент
    Джессика Джонс смотреть онлайн
    Cкачать фильм Джессика Джонс бесплатно
    Джессика Джонс скачать торрент в хорошем качестве
    Джессика Джонс смотреть онлайн бесплатно в хорошем качестве


    Вы не можете начинать темы
    Вы не можете отвечать на сообщения
    Вы не можете редактировать свои сообщения
    Вы не можете удалять свои сообщения
    Вы не можете голосовать в опросах
    Вы не можете прикреплять файлы к сообщениям
    Вы можете скачивать файлы