Ссылка на приватное зеркало нашего сайта всего за 1$. Внимание количество ограничено!!!

2 сезон

iTunes

1 сезон

1

2 сезон

2 сезон

iTunes

1 сезон

RePack

30

Ultimate

ВАЖНО

ИГРА 18+

pack

RePack

MK11
pack

Забери бонус

RePack

jed

!!Акция!!

Alien_Rage

RePack

fifa19

RePack

Assassins Creed: Odyssey

RePack

NEED FOR SPEED™ PAYBACK

4 сезон

9 сезон

Бесстыжие 9 сезон

Все сериалы

все сериалы на PB.wtf

RePack

FAR CRY 5
  

Игра престолов / Game of Thrones (5 Сезон) (Алан Тейлор, Дэвид Наттер, Алекс Грейвз) [2015 г., Фэнтези, драма, приключения, BDRip 1080p / 60 FPS, Dub, MVO, Original] pb.wtf

Игра престолов через торрент pb.wtf

Размер: 60.77 GB | Добавлен: 2 года 8 мес. назад | Торрент скачан:156 раз
Скачать  

10-03-2018 09:29 Игра престолов Скачать торрент  

Игра престолов / Game of Thrones
Год выпуска: 2015
Страна: США, Великобритания
Жанр: Фэнтези, драма, приключения
Продолжительность: 10 x ~ 00:52:00
Перевод: Dub, MVO, Original
Субтитры: Russian (Forced), English (Forced), Russian (Amedia), Russian (7kingdoms), English

Режиссер: Алан Тейлор, Дэвид Наттер, Алекс Грейвз

rating

В ролях: Лина Хиди, Питер Динклэйдж, Мишель Фэйрли, Эмилия Кларк, Кит Харингтон, Николай Костер-Валдау, Иэн Глен, Эйден Гиллен, Элфи Оуэн-Аллен, Мэйси Уильямс, Софи Тёрнер, Джек Глисон, Айзек Хемпстед-Райт, Ричард Мэдден, Джером Флинн, Конлет Хилл

Описание: «Игра престолов» новый сериал HBO, основанный на бестселлерах Джорджа Р.Р. Мартина. В мире, где лето и зимы длятся десятилетиями, на кону корона Вестероса. Предательство, похоть, интриги и сверхъестественные силы сотрясают все четыре стороны Королевства — от плетущего интриги юга, диких восточных земель, до замерзшего севера и древней Стены, что защищает королевство от тьмы за нею. Короли и королевы, рыцари и мятежники, лжецы и благородные люди борются за Влacть в кровавом сражении за Железный Трон.

Качество: BDRip 1080p / 60 FPS
Формат: MKV
Видео кодек: H.264
Аудио кодек: AC3
Видео: AVC, 1920x1080 (16:9), 13200 kbps, 60.000 fps, 0.106 bpp
Аудио#1: Russian: 48 kHz, AC3, 3/2 (L,C,R,l,r) + LFE ch, ~640.00 kbps avg |Дубляж, Amedia|
Аудио#2: Russian: 48 kHz, AC3, 3/2 (L,C,R,l,r) + LFE ch, ~640.00 kbps avg |Многоголосый закадровый, LostFilm|
Аудио#3: Russian: 48 kHz, AC3, 3/2 (L,C,R,l,r) + LFE ch, ~640.00 kbps avg |Многоголосый закадровый, FOX|
Аудио#4: Russian: 48 kHz, AC3, 3/2 (L,C,R,l,r) + LFE ch, ~384.00 kbps avg |Многоголосый закадровый, AlexFilm|
Аудио#5: Ukrainian: 48 kHz, AC3, 3/2 (L,C,R,l,r) + LFE ch, ~384.00 kbps avg |Многоголосый закадровый, UATEAM|
Аудио#6: English: 48 kHz, AC3, 3/2 (L,C,R,l,r) + LFE ch, ~640.00 kbps avg
Аудио#7: English: 48 kHz, AC3, 3/2 (L,C,R,l,r) + LFE ch, ~448.00 kbps avg |Commentary|
General
Unique ID : 133050094890329157311618133892410786045 (0x64188424B804EE0A53E18C83E46240FD)
Complete name : D:\Torrents\Игра престолов 5 Сезон BDRip 1080p 60fps\02. Черно-белый дом.mkv
Format : Matroska
Format version : Version 4 / Version 2
File size : 6.58 GiB
Duration : 55 min 34 s
Overall bit rate : 17.0 Mb/s
Movie name : Game of Thrones 5x02 (2015) by Tiberiumsun69
Encoded date : UTC 2018-03-09 21:07:41
Writing application : mkvmerge v20.0.0 ('I Am The Sun') 64-bit
Writing library : libebml v1.3.5 + libmatroska v1.4.8

Video
ID : 1
Format : AVC
Format/Info : Advanced Video Codec
Format profile : High@L4.1
Format settings : CABAC / 4 Ref Frames
Format settings, CABAC : Yes
Format settings, ReFrames : 4 frames
Codec ID : V_MPEG4/ISO/AVC
Duration : 55 min 34 s
Bit rate : 13.2 Mb/s
Width : 1 920 pixels
Height : 1 080 pixels
Display aspect ratio : 16:9
Frame rate mode : Constant
Frame rate : 60.000 FPS
Color space : YUV
Chroma subsampling : 4:2:0
Bit depth : 8 bits
Scan type : Progressive
Bits/(Pixel*Frame) : 0.106
Stream size : 5.12 GiB (78%)
Writing library : x264 core 155 r2901 7d0ff22
Encoding settings : cabac=1 / ref=4 / deblock=1:0:0 / analyse=0x3:0x133 / me=hex / subme=10 / psy=1 / psy_rd=1.00:0.00 / mixed_ref=1 / me_range=16 / chroma_me=1 / trellis=2 / 8x8dct=1 / cqm=0 / deadzone=21,11 / fast_pskip=1 / chroma_qp_offset=-2 / threads=12 / lookahead_threads=1 / sliced_threads=0 / nr=0 / decimate=1 / interlaced=0 / bluray_compat=0 / constrained_intra=0 / bframes=8 / b_pyramid=2 / b_adapt=1 / b_bias=0 / direct=1 / weightb=1 / open_gop=0 / weightp=2 / keyint=250 / keyint_min=25 / scenecut=40 / intra_refresh=0 / rc_lookahead=50 / rc=crf / mbtree=1 / crf=14.0 / qcomp=0.60 / qpmin=0 / qpmax=69 / qpstep=4 / vbv_maxrate=62500 / vbv_bufsize=80000 / crf_max=0.0 / nal_hrd=none / filler=0 / ip_ratio=1.40 / aq=1:1.00
Language : English
Default : Yes
Forced : No

Audio #1
ID : 2
Format : AC-3
Format/Info : Audio Coding 3
Codec ID : A_AC3
Duration : 55 min 34 s
Bit rate mode : Constant
Bit rate : 640 kb/s
Channel(s) : 6 channels
Channel positions : Front: L C R, Side: L R, LFE
Sampling rate : 48.0 kHz
Frame rate : 31.250 FPS (1536 SPF)
Bit depth : 16 bits
Compression mode : Lossy
Stream size : 254 MiB (4%)
Title : Amedia
Language : Russian
Service kind : Complete Main
Default : Yes
Forced : No

Audio #2
ID : 3
Format : AC-3
Format/Info : Audio Coding 3
Codec ID : A_AC3
Duration : 55 min 34 s
Bit rate mode : Constant
Bit rate : 640 kb/s
Channel(s) : 6 channels
Channel positions : Front: L C R, Side: L R, LFE
Sampling rate : 48.0 kHz
Frame rate : 31.250 FPS (1536 SPF)
Bit depth : 16 bits
Compression mode : Lossy
Stream size : 254 MiB (4%)
Title : LostFilm
Language : Russian
Service kind : Complete Main
Default : No
Forced : No

Audio #3
ID : 4
Format : AC-3
Format/Info : Audio Coding 3
Codec ID : A_AC3
Duration : 55 min 34 s
Bit rate mode : Constant
Bit rate : 640 kb/s
Channel(s) : 6 channels
Channel positions : Front: L C R, Side: L R, LFE
Sampling rate : 48.0 kHz
Frame rate : 31.250 FPS (1536 SPF)
Bit depth : 16 bits
Compression mode : Lossy
Stream size : 254 MiB (4%)
Title : FOX
Language : Russian
Service kind : Complete Main
Default : No
Forced : No

Audio #4
ID : 5
Format : AC-3
Format/Info : Audio Coding 3
Codec ID : A_AC3
Duration : 55 min 34 s
Bit rate mode : Constant
Bit rate : 384 kb/s
Channel(s) : 6 channels
Channel positions : Front: L C R, Side: L R, LFE
Sampling rate : 48.0 kHz
Frame rate : 31.250 FPS (1536 SPF)
Bit depth : 16 bits
Compression mode : Lossy
Stream size : 153 MiB (2%)
Title : AlexFilm
Language : Russian
Service kind : Complete Main
Default : No
Forced : No

Audio #5
ID : 6
Format : AC-3
Format/Info : Audio Coding 3
Codec ID : A_AC3
Duration : 55 min 34 s
Bit rate mode : Constant
Bit rate : 384 kb/s
Channel(s) : 6 channels
Channel positions : Front: L C R, Side: L R, LFE
Sampling rate : 48.0 kHz
Frame rate : 31.250 FPS (1536 SPF)
Bit depth : 16 bits
Compression mode : Lossy
Stream size : 153 MiB (2%)
Title : Omikron
Language : Ukrainian
Service kind : Complete Main
Default : No
Forced : No

Audio #6
ID : 7
Format : AC-3
Format/Info : Audio Coding 3
Codec ID : A_AC3
Duration : 55 min 34 s
Bit rate mode : Constant
Bit rate : 640 kb/s
Channel(s) : 6 channels
Channel positions : Front: L C R, Side: L R, LFE
Sampling rate : 48.0 kHz
Frame rate : 31.250 FPS (1536 SPF)
Bit depth : 16 bits
Compression mode : Lossy
Stream size : 254 MiB (4%)
Language : English
Service kind : Complete Main
Default : No
Forced : No

Audio #7
ID : 8
Format : AC-3
Format/Info : Audio Coding 3
Codec ID : A_AC3
Duration : 55 min 34 s
Bit rate mode : Constant
Bit rate : 448 kb/s
Channel(s) : 6 channels
Channel positions : Front: L C R, Side: L R, LFE
Sampling rate : 48.0 kHz
Frame rate : 31.250 FPS (1536 SPF)
Bit depth : 16 bits
Compression mode : Lossy
Stream size : 178 MiB (3%)
Title : Commentary
Language : English
Service kind : Complete Main
Default : No
Forced : No

Text #1
ID : 9
Format : UTF-8
Codec ID : S_TEXT/UTF8
Codec ID/Info : UTF-8 Plain Text
Duration : 3 min 48 s
Bit rate : 69 b/s
Count of elements : 36
Stream size : 1.93 KiB (0%)
Title : Forced
Language : Russian
Default : Yes
Forced : Yes

Text #2
ID : 10
Format : UTF-8
Codec ID : S_TEXT/UTF8
Codec ID/Info : UTF-8 Plain Text
Duration : 3 min 48 s
Bit rate : 39 b/s
Count of elements : 35
Stream size : 1.10 KiB (0%)
Title : Forced
Language : English
Default : No
Forced : Yes

Text #3
ID : 11
Format : UTF-8
Codec ID : S_TEXT/UTF8
Codec ID/Info : UTF-8 Plain Text
Duration : 51 min 12 s
Bit rate : 94 b/s
Count of elements : 741
Stream size : 35.5 KiB (0%)
Title : Amedia
Language : Russian
Default : No
Forced : No

Text #4
ID : 12
Format : UTF-8
Codec ID : S_TEXT/UTF8
Codec ID/Info : UTF-8 Plain Text
Duration : 52 min 16 s
Bit rate : 99 b/s
Count of elements : 736
Stream size : 37.9 KiB (0%)
Title : 7kingdoms
Language : Russian
Default : No
Forced : No

Text #5
ID : 13
Format : UTF-8
Codec ID : S_TEXT/UTF8
Codec ID/Info : UTF-8 Plain Text
Duration : 51 min 20 s
Bit rate : 61 b/s
Count of elements : 708
Stream size : 22.9 KiB (0%)
Language : English
Default : No
Forced : No

Menu
00:00:00.000 : en:00:00:00.000
00:01:55.782 : en:00:01:55.782
00:06:54.623 : en:00:06:54.623
00:16:57.642 : en:00:16:57.642
00:27:01.662 : en:00:27:01.662
00:38:22.467 : en:00:38:22.467
00:46:07.390 : en:00:46:07.390
00:54:15.252 : en:00:54:15.252
01: The Wars to Come / Грядущие войны
02: The House of Black and White / Черно-белый дом
03: High Sparrow / Его Воробейшество
04: The Sons of the Harpy / Сыны Гарпии
05: Kill the Boy / Убей мальчишку
06: Unbowed, Unbent, Unbroken / Непокорны, несгибаемы, не сломлены
07: The Gift / Дар
08: Hardhome / Суровый дом
09: The Dance of Dragons / Танец драконов
10: Mother's Mercy / Милосердие матери
Просьба к переливающим на другие сайты, в оформлении указывайте пожалуйста авторство группы Ссылка на биткоин кошелек - 1DWGvzWwL9gYLWXkozc7RAoU6KmFnCsWsi Авторская группа в ВК
pb.wtf



Скачать Игра престолов через торрент http://s019.radikal.ru/i601/1605/f9/02a4ebc79683.jpg Скачать фильм Игра престолов через торрент бесплантно в хорошем качестве Описание: «Игра престолов» новый сериал HBO, основанный на бестселлерах Джорджа Р.Р. Мартина. В мире, где лето и зимы длятся десятилетиями, ... 9.8 10 6
Info! Золотая раздача, скачанное не засчитывается.
Торрент: Зарегистрирован [2018-03-10 09:29] · скачан: 156 раз
Статус: √ проверено
Размер: 60.77 GB
Как cкачать? Как скачать Игра престолов через торрент | qTorrent

% Раздел Тема Автор DL S | L
Игра престолов [ 297.23 GB ] Игра престолов / Game of Thrones / Сезон: 1-7 из 7 / Серии: 1-67 из 67 [2011-2017 BDRip 1080p] MVO [LostFilm] sheker187 Скачать
2 | 0
Игра престолов [ 4.86 GB ] Игра престолов / Game of Thrones [сезон 3 10 серии из 10] [2013 HDTVRip] [MP4 640x] MVO Assassins Creed Скачать
1 | 0
Официальные cаундтреки к зарубежным фильмам [ 897 MB ] Игра Престолов / OST Game Of Thrones: Collection 2011 - 2016 / MP3 / 320 kbps / SoundtrackScore BomjJamesBomj Скачать
1 | 0
Игра престолов [ 23.95 GB ] Игра престолов / Game of Thrones / Сезон: 8 / Серии: 1-6 из 6 [2019 WEB-DL 1080p] MVO [Amedia / Новамедиа] bober100 Скачать
1 | 1
Игра престолов [ 55.77 GB ] Игра Престолов / Game Of Thrones / Сезоны: 1-8 / Серии: 1-73 из 73 / [2011-2019 BDRipWEB-DL​Rip] MVO God_Slayer Скачать
9 | 0
Игра престолов [ 5.06 GB ] Игра престолов / Game of Thrones / Сезон: 8 / Серии: 1-6 из 6 [2019 WEB-DLRip] MVO [Amedia / Новамедиа] bober100 Скачать
2 | 1
Игра престолов [ 11.52 GB ] Игра престолов / Game of Thrones / Сезон: 8 / Серии: 1-6 из 6 [2019 WEB-DL 720p] MVO [Amedia / Новамедиа] bober100 Скачать
2 | 0

28-11-2019 20:33  

Отключить всю рекламу на сайте

30-03-2018 17:19 Игра престолов Скачать торрент  

Tiberiumsun69 писал(а):

Всем приятного просмотра.

Спасибо огромное,просто огромнейшее!А не могли бы вы сделать оставшиеся сезоны?pb.wtf



13-06-2018 13:47 Игра престолов Скачать торрент  

сиды умерли штоле ?pb.wtf



29-06-2018 18:03 Игра престолов Скачать торрент  

ну же ребята ! раздайте ! )))pb.wtf



07-08-2019 12:30 Игра престолов Скачать торрент  

Очень круто смотрится, не знаете где можно 6,7,8 сезоны взять в таком качестве?pb.wtf



    Дорогой пользователь! Огромная просьба, поблагодарите релизера, оцените раздачу и оставьте свои комментарий, если Вы скачали Игра престолов через торрент бесплатно! Внесите свою лепту в развитие PiratBit!
    Комментировать посты могут только пользователи прошедшие не сложную регистрацию
    Показать сообщения:    

    Игра престолов через торрент
    Скачать бесплатно Игра престолов
    Игра престолов скачать торрент
    Игра престолов смотреть онлайн
    Cкачать фильм Игра престолов бесплатно
    Игра престолов скачать торрент в хорошем качестве
    Игра престолов смотреть онлайн бесплатно в хорошем качестве


    Вы не можете начинать темы
    Вы не можете отвечать на сообщения
    Вы не можете редактировать свои сообщения
    Вы не можете удалять свои сообщения
    Вы не можете голосовать в опросах
    Вы не можете прикреплять файлы к сообщениям
    Вы можете скачивать файлы