Ссылка на приватное зеркало нашего сайта всего за 1$. Внимание количество ограничено!!!

2 сезон

iTunes

1 сезон

1

iTunes

iTunes

iTunes

1 сезон

RePack

30

ИГРА 18+

pack

ВАЖНО

!!Акция!!

Alien_RageХит недели

RePack

MK11
pack

Забери бонус

RePack

jed

!!Акция!!

Alien_Rage

RePack

fifa19

RePack

Assassins Creed: Odyssey

RePack

NEED FOR SPEED™ PAYBACK

4 сезон

9 сезон

Бесстыжие 9 сезон

Все сериалы

все сериалы на PB.wtf

RePack

FAR CRY 5
  

Дорога из желтого кирпича / Серия 1-4 из 4 / (Екатерина Шагалова) [2018 г., Мелодрама, SATRip] pb.wtf

Дорога из желтого кирпича через торрент pb.wtf

Размер: 2.4 GB | Добавлен: 2 года 7 мес. назад | Торрент скачан:95 раз
Скачать  

10-03-2018 12:02 Дорога из желтого кирпича Скачать торрент  

Дорога из желтого кирпича / Серия 1-4 из 4 /

Год выпуска: 2018
Страна: Россия
Жанр: Мелодрама
Продолжительность: 4 х 00:46:00
Субтитры: нет

Режиссер: Екатерина Шагалова

В ролях: Дмитрий Марьянов, Мария Шалаева, Даниил Спиваковский, Екатерина Волкова, Евгений Сидихин, Екатерина Вуличенко, Андрей Барило, Иван Щенин, Александр Булатов, Григорий Середа

Описание: Девушка Варя случайно встречает свою детскую любовь — Ивана Петровича Соболя. От своей школьной подруги она узнает, что тот потерял жену и ребенка в автомобильной аварии. Варя решает рассказать Ивану историю о том, как 10 лет назад в клинике, где она работала, перепутали ЭКО материалы, и о том, что у него в другой семье растет его биологический сын...

Качество: SATRip
Формат: AVI
Видео кодек: XviD
Аудио кодек: MP3
Видео: 720x400 (1.80:1), 25 fps, XviD build 50 ~1800 kbps
Аудио#1: 48 kHz, MPEG Layer 3, 2 ch, ~128.00 kbps
скриншот   скриншот   скриншот   скриншот  

General
Complete name : H:\релизы.торрентфайл\Doroga.iz.zheltogo.kirpicha.SATRip.[www.riperam.org]\Doroga.iz.zheltogo.kirpicha.01.SATRip.[www.riperam.org].avi
Format : AVI
Format/Info : Audio Video Interleave
File size : 620 MiB
Duration : 44mn 43s
Overall bit rate : 1 937 Kbps
Writing application : VirtualDubMod 1.5.10.3 | www.virtualdub-fr.org || (build 2550/release)
Writing library : VirtualDubMod build 2550/release

Video
ID : 0
Format : MPEG-4 Visual
Format profile : Advanced Simple@L5
Format settings, BVOP : 2
Format settings, QPel : No
Format settings, GMC : No warppoints
Format settings, Matrix : Default (H.263)
Codec ID : XVID
Codec ID/Hint : XviD
Duration : 44mn 43s
Bit rate : 1 800 Kbps
Width : 720 pixels
Height : 400 pixels
Display aspect ratio : 16:9
Frame rate : 25.000 fps
Color space : YUV
Chroma subsampling : 4:2:0
Bit depth : 8 bits
Scan type : Progressive
Compression mode : Lossy
Bits/(Pixel*Frame) : 0.250
Stream size : 576 MiB (93%)
Writing library : XviD 1.2.1 (UTC 2008-12-04)

Audio
ID : 1
Format : MPEG Audio
Format version : Version 1
Format profile : Layer 3
Mode : Joint stereo
Mode extension : MS Stereo
Codec ID : 55
Codec ID/Hint : MP3
Duration : 44mn 43s
Bit rate mode : Constant
Bit rate : 128 Kbps
Channel(s) : 2 channels
Sampling rate : 48.0 KHz
Compression mode : Lossy
Stream size : 40.9 MiB (7%)
Alignment : Aligned on interleaves
Interleave, duration : 40 ms (1.00 video frame)
Interleave, preload duration : 504 ms
Writing library : LAME3.99r
Encoding settings : -m j -V 4 -q 9 -lowpass 17 -b 128

pb.wtf



Скачать Дорога из желтого кирпича через торрент http://i100.fastpic.ru/big/2018/0310/28/16f92629f4a5494377bec15b516f6d28.jpg Скачать фильм Дорога из желтого кирпича через торрент бесплантно в хорошем качестве Описание: Девушка Варя случайно встречает свою детскую любовь — Ивана Петровича Соболя. От своей школьной подруги она узнает, что тот ... 10 10 5
Торрент: Зарегистрирован [2018-03-10 12:02] · скачан: 95 раз
Статус: √ проверено
Размер: 2.4 GB
Как cкачать? Как скачать Дорога из желтого кирпича через торрент | qTorrent

% Раздел Тема Автор DL S | L
Наши сериалы [ 2.36 GB ] Дорога из жёлтого кирпича / Серии 1-4 из 4 [2017 Мело WEB-DLRip] bober100 Скачать
1 | 0
Наши сериалы [ 2.26 GB ] Дорога из жёлтого кирпича / Серии 1-4 из 4 [2017 Мело WEB-DLRip-AVC] bober100 Скачать
1 | 0
Наши сериалы [ 4.58 GB ] Дорога из жёлтого кирпича / Серии 1-4 из 4 [2017 Мело WEB-DL 1080p] bober100 Скачать
1 | 0
Наши сериалы [ 2.09 GB ] Дорога из жёлтого кирпича / Серии: 1-4 из 4 [2017 SATRip-AVC] aleksan55 Скачать
1 | 0

28-11-2019 20:33  

Отключить всю рекламу на сайте

    Дорогой пользователь! Огромная просьба, поблагодарите релизера, оцените раздачу и оставьте свои комментарий, если Вы скачали Дорога из желтого кирпича через торрент бесплатно! Внесите свою лепту в развитие PiratBit!
    Комментировать посты могут только пользователи прошедшие не сложную регистрацию
    Показать сообщения:    

    Дорога из желтого кирпича через торрент
    Скачать бесплатно Дорога из желтого кирпича
    Дорога из желтого кирпича скачать торрент
    Дорога из желтого кирпича смотреть онлайн
    Cкачать фильм Дорога из желтого кирпича бесплатно
    Дорога из желтого кирпича скачать торрент в хорошем качестве
    Дорога из желтого кирпича смотреть онлайн бесплатно в хорошем качестве


    Вы не можете начинать темы
    Вы не можете отвечать на сообщения
    Вы не можете редактировать свои сообщения
    Вы не можете удалять свои сообщения
    Вы не можете голосовать в опросах
    Вы не можете прикреплять файлы к сообщениям
    Вы можете скачивать файлы