Ссылка на приватное зеркало всего за 1$. Внимание количество ограничено!!!

OK

1+1

iTunes

мы

OK

1

WEB-DLRip

Джокер

Пифагор

Ведьмак / The Witcher сериал

Лицензия

ПШазам

ОК

Оно 2

iTunes

30
pack

Вам бонус

ВАЖНО

!!Акция!!

Alien_RageХит недели

RePack

Resident Evil 21

ИГРА 18+

pack

RePack

jed

RePack

fifa19

RePack

Assassins Creed: Odyssey

RePack

NEED FOR SPEED™ PAYBACK

4 сезон

9 сезон

Бесстыжие 9 сезон

Все сериалы

все сериалы на PB.wtf

RePack

FAR CRY 5
  

Сёстры по степу / Step Sisters (2018) WEBRip 720p | GreenРай Studio pb.wtf

Сёстры по степу через торрент pb.wtf

Размер: 1.42 GB | Добавлен: 1 год 10 мес. назад | Торрент скачан:49 раз
Скачать  

10-03-2018 12:48 Сёстры по степу Скачать торрент  

Информация о фильме

Год выхода 2017

Наименование: Сёстры по степу

Оригинальное наименование: Step Sisters

Произведено: США

Жанр: комедия

Режиссер постановщик: Чарльз Стоун III

В главных ролях: Мэгалин Эчиканвоке, Иден Шер, Линдон Смит, Гейдж Голайтли, Алессандра Торесон, Ниа Джервьер, Марке Ричардсон II, Нэтари Наутон, Мэтт МакГорри, Шерил Ли Ральф

О фильме: Дочь выпускников Гарварда Джамила надеется получить от родителей рекомендацию, чтобы попасть на юридический факультет. А пока она подрабатывает помощником руководителя учебной части и учится в колледже, также являясь участницей местной афроамериканской танцевальной команды по степу. Но родители отказывают дочери в рекомендации, считая, что она должна сама попасть в Гарвард. В ближайший вечер Джамила напивается на дикой вечеринке соседнего женского сообщества, фотографии которой попадают в интернет, что сильно портит репутацию учебного заведения. Руководитель, сам выпускник Гарварда, обещает Джамиле рекомендацию, если та восстановит честь сообщества, собрав новую команду по степу - теперь из белых участниц опозорившегося сообщества.



Файл
Качество: WEBRip 720p
Видео данные: AVC, 1280x540 (2:40:1), 23.976 fps, 1673 Кбит/с
Аудио данные: AC3, 2 ch, 192 Кбит/с
Перевод: Любительский многоголосый (GreenРай Studio)
Продолжительность: 01:48:21
General

Complete name : D:ГРИНРАЙСёстры по степу [720p].mp4

Format : MPEG-4

Format profile : Base Media

Codec ID : isom (isom/iso2/avc1/mp41)

File size : 1.42 GiB

Duration : 1 h 48 min

Overall bit rate : 1 868 kb/s

Writing application : Lavf57.83.100

Video

ID : 1

Format : AVC

Format/Info : Advanced Video Codec

Format profile : High@L4

Format settings : CABAC / 5 Ref Frames

Format settings, CABAC : Yes

Format settings, RefFrames : 5 frames

Codec ID : avc1

Codec ID/Info : Advanced Video Coding

Duration : 1 h 48 min

Bit rate : 1 673 kb/s

Width : 1 280 pixels

Height : 540 pixels

Display aspect ratio : 2.40:1

Frame rate mode : Constant

Frame rate : 23.976 (24000/1001) FPS

Color space : YUV

Chroma subsampling : 4:2:0

Bit depth : 8 bits

Scan type : Progressive

Bits/(Pixel*Frame) : 0.101

Stream size : 1.27 GiB (90%)

Writing library : x264 core 152 r2851bm ba24899

Encoding settings : cabac=1 / ref=5 / deblock=1:-1:-1 / analyse=0x3:0x113 / me=hex / subme=8 / psy=1 / psy_rd=1.00:0.15 / mixed_ref=1 / me_range=16 / chroma_me=1 / trellis=2 / 8x8dct=1 / cqm=0 / deadzone=21,11 / fast_pskip=1 / chroma_qp_offset=-3 / threads=8 / lookahead_threads=8 / sliced_threads=1 / slices=8 / nr=0 / decimate=1 / interlaced=0 / bluray_compat=0 / constrained_intra=0 / bframes=3 / b_pyramid=2 / b_adapt=1 / b_bias=0 / direct=3 / weightb=1 / open_gop=0 / weightp=2 / keyint=250 / keyint_min=23 / scenecut=40 / intra_refresh=0 / rc_lookahead=0 / rc=crf / mbtree=0 / crf=21.0 / qcomp=0.60 / qpmin=0 / qpmax=69 / qpstep=4 / vbv_maxrate=2000 / vbv_bufsize=4000 / crf_max=0.0 / nal_hrd=none / filler=0 / ip_ratio=1.40 / pb_ratio=1.30 / aq=1:1.00

Audio

ID : 2

Format : AC-3

Format/Info : Audio Coding 3

Codec ID : ac-3

Duration : 1 h 48 min

Bit rate mode : Constant

Bit rate : 192 kb/s

Channel(s) : 2 channels

Channel positions : Front: L R

Sampling rate : 48.0 kHz

Frame rate : 31.250 FPS (1536 SPF)

Bit depth : 16 bits

Compression mode : Lossy

Stream size : 150 MiB (10%)

Service kind : Complete Main

Default : Yes

Alternate group : 1
Присутствует рекламаpb.wtf



Скачать Сёстры по степу через торрент http://a.radikal.ru/a23/1803/c1/aca94cbf0e59.jpg Скачать фильм Сёстры по степу через торрент бесплантно в хорошем качестве О фильме: Дочь выпускников Гарварда Джамила надеется получить от родителей рекомендацию, чтобы попасть на юридический факультет. А пока она ... 10 10 5
Торрент: Зарегистрирован [2018-03-10 12:48] · скачан: 49 раз
Статус: √ проверено
Размер: 1.42 GB
Как cкачать? Как скачать Сёстры по степу через торрент | qTorrent

28-11-2019 20:33  

Отключить всю рекламу на сайте

11-03-2018 08:36 Сёстры по степу Скачать торрент  

Топик был перенесен из форума Фильмы [HD 720p, 1080p] (Звук Cam, VO, DVO) в форум Фильмы с рекламой (Новинки AVI/MKV)


bober100pb.wtf



11-03-2018 16:02 Сёстры по степу Скачать торрент  

Игра слов Step Sisters - Сестры по степу. Stepsisters - сводные сестры.pb.wtf



    Дорогой пользователь! Огромная просьба, поблагодарите релизера, оцените раздачу и оставьте свои комментарий, если Вы скачали Сёстры по степу через торрент бесплатно! Внесите свою лепту в развитие PiratBit!
    Комментировать посты могут только пользователи прошедшие не сложную регистрацию
    Показать сообщения:    

    Сёстры по степу через торрент
    Скачать бесплатно Сёстры по степу
    Сёстры по степу скачать торрент
    Сёстры по степу смотреть онлайн
    Cкачать фильм Сёстры по степу бесплатно
    Сёстры по степу скачать торрент в хорошем качестве
    Сёстры по степу смотреть онлайн бесплатно в хорошем качестве


    Вы не можете начинать темы
    Вы не можете отвечать на сообщения
    Вы не можете редактировать свои сообщения
    Вы не можете удалять свои сообщения
    Вы не можете голосовать в опросах
    Вы не можете прикреплять файлы к сообщениям
    Вы можете скачивать файлы