Всегда рабочее зеркало без VPN и Proxy просто перед .vidak.icu напиши любое слово или цифру, Пример http://xucv.vidak.icu

MVO

Лицензия

1 сезон

1

1 сезон

iTunes

1 сезон

13

1 сезон

Deluxe

pack

Рекомендуем

Repack

30

ВАЖНО

RePack

MK11

RePack

jed

RePack

fifa19

RePack

RDR2

RePack

NEED FOR SPEED™ PAYBACK

Кинопоиск HD

6 сезон

 Острые козырьки 6 сезон

Все сериалы

все сериалы на PB.wtf

RePack

FAR CRY 5
  
Magnet ссылка

Тень стрекозы / Серии 1-4 из 4 (Наталия Микрюкова) [2015, детектив, мелодрама, WEB-DLRip] pb.wtf

Тень стрекозы через торрент pb.wtf

Размер: 2.34 GB | Добавлен: 4 года 3 мес. назад | Торрент скачан:98 раз
Смотреть онлайн Тень стрекозы | Скачать    Ребята, помогите собрать деньги на оплату серверов!!!

10-03-2018 18:20 Тень стрекозы Скачать торрент  

Тень стрекозыГод выпуска: 2015
Страна: Россия
Жанр: детектив, мелодрама
Продолжительность: 4 х ~ 00:45:00
Субтитры: отсутствуют

Режиссер: Наталия Микрюкова



В ролях:

Карина Разумовская, Илья Соколовский, Антон Батырев, Юрий Анпилогов, Максим Радугин, Анастасия Немец, Наталья Беляева, Михаил Богдасаров, Анастасия Привалова, Сергей Холмогоров, Тамара Спиричева, Виктор Потапешкин, Виталий Кухтин, Игорь Климов, Владимир Денисов, Андрей Артасов, Александр Коврижных, Елена Сачук, Лидия Арефьева, Роман Еремин

Описание:

В родном городке московской журналистки Ланы происходит загадочное убийство. Погибла ее давняя приятельница Светлана - эксцентричная особа, вечно подражавшая более успешной подруге. Таинственные послания, оставленные покойной, заставляют Лану начать собственное расследование: похоже, к смерти подруги причастен любимый мужчина Ланы - исчезнувший пять лет назад спецназовец Валера, носивший кличку «Стрекоза». Желание оправдать Валеру и развеять собственные подозрения доводит Лану до беды - кто-то, остающийся в тени, ясно пытается дать ей знать - она последует за Светой, если не уберется из города.

Качество: WEB-DLRip
Формат: AVI

Видео: XviD, ~ 1650 Кбит/с, 720x400
Аудио: AC3, 2 ch, 192 Кбит/с
скриншот   скриншот   скриншот  

Общее
Полное имя : E:\Ten.strekozy.2015.WEB-DLRip.Files-x\01.Ten.strekozy.2015.WEB-DLRip.Files-x.avi
Формат : AVI
Формат/Информация : Audio Video Interleave
Размер файла : 598 Мбайт
Продолжительность : 46 м. 0 с.
Общий поток : 1817 Кбит/сек
Программа кодирования : VirtualDubMod 1.5.10.3 | www.virtualdub-fr.org || (build 2550/release)
Библиотека кодирования : VirtualDubMod build 2550/release

Видео
Идентификатор : 0
Формат : MPEG-4 Visual
Профиль формата : Advanced [email protected]
Настройки формата : BVOP1 / Custom Matrix
Параметр BVOP формата : 1
Параметр QPel формата : Нет
Параметр GMC формата : Без точки перехода
Параметр матрицы формата : Выборочная
Идентификатор кодека : XVID
Идентификатор кодека/Подсказка : XviD
Продолжительность : 46 м. 0 с.
Битрейт : 1615 Кбит/сек
Ширина : 720 пикселей
Высота : 400 пикселей
Соотношение сторон : 16:9
Частота кадров : 25,000 кадров/сек
Цветовое пространство : YUV
Субдискретизация насыщенности : 4:2:0
Битовая глубина : 8 бит
Тип развёртки : Прогрессивная
Метод сжатия : С потерями
Бит/(Пиксели*Кадры) : 0.224
Размер потока : 532 Мбайт (89%)
Библиотека кодирования : XviD 73

Аудио
Идентификатор : 1
Формат : AC-3
Формат/Информация : Audio Coding 3
Идентификатор кодека : 2000
Продолжительность : 46 м. 0 с.
Вид битрейта : Постоянный
Битрейт : 192 Кбит/сек
Каналы : 2 канала
Расположение каналов : Front: L R
Частота : 48,0 КГц
Частота кадров : 31,250 кадров/сек (1536 SPF)
Битовая глубина : 16 бит
Метод сжатия : С потерями
Размер потока : 63,2 Мбайт (11%)
Выравнивание : Разделение по промежуткам
Продолжительность промежутка : 40 мс. (1,00 видеокадр)
Время предзагрузки промежутка : 500 мс.
ServiceKind/String : Complete Main

pb.wtf



Скачать Тень стрекозы через торрент http://img12.lostpic.net/2018/03/10/0262f65348e87ca6e989578155677bbd.jpg Скачать, смотреть онлайн Тень стрекозы бесплантно в хорошем качестве Описание: В родном городке московской журналистки Ланы происходит загадочное убийство. Погибла ее давняя приятельница Светлана - ... 10 10 6
Торрент: Зарегистрирован [2018-03-10 18:20] · скачан: 98 раз
Статус: √ проверено
Размер: 2.34 GB
Как cкачать? Как скачать Тень стрекозы через торрент | UTorrent

% Раздел Тема Автор DL S | L
Наши сериалы [ 3.44 GB ] Тень стрекозы / Серии 1-4 из 4 [2015 WEB-DL 1080p] bober100 Скачать
1 | 0

28-11-2019 20:33  

Отключить всю рекламу на сайте

    Дорогой пользователь! Огромная просьба, поблагодарите релизера, оцените раздачу и оставьте свои комментарий, если Вы скачали Тень стрекозы через торрент бесплатно!
    Комментировать посты могут только пользователи прошедшие не сложную регистрацию
    Показать сообщения:    

    Тень стрекозы через торрент
    Скачать бесплатно Тень стрекозы
    Тень стрекозы скачать торрент
    Тень стрекозы смотреть онлайн
    Cкачать фильм Тень стрекозы бесплатно
    Тень стрекозы скачать торрент в хорошем качестве
    Тень стрекозы смотреть онлайн бесплатно в хорошем качестве


    Вы не можете начинать темы
    Вы не можете отвечать на сообщения
    Вы не можете редактировать свои сообщения
    Вы не можете удалять свои сообщения
    Вы не можете голосовать в опросах
    Вы не можете прикреплять файлы к сообщениям
    Вы можете скачивать файлы