Ссылка на приватное зеркало нашего сайта всего за 1$. Внимание количество ограничено!!!

2 сезон

iTunes

1 сезон

1

iTunes

iTunes

iTunes

1 сезон

RePack

30

ИГРА 18+

pack

ВАЖНО

!!Акция!!

Alien_RageХит недели

RePack

MK11
pack

Забери бонус

RePack

jed

!!Акция!!

Alien_Rage

RePack

fifa19

RePack

Assassins Creed: Odyssey

RePack

NEED FOR SPEED™ PAYBACK

4 сезон

9 сезон

Бесстыжие 9 сезон

Все сериалы

все сериалы на PB.wtf

RePack

FAR CRY 5
  

Тень стрекозы / Серии 1-4 из 4 (Наталия Микрюкова) [2015, детектив, мелодрама, WEB-DL 1080p] pb.wtf

Тень стрекозы через торрент pb.wtf

Размер: 3.44 GB | Добавлен: 2 года 7 мес. назад | Торрент скачан:69 раз
Скачать  

10-03-2018 18:25 Тень стрекозы Скачать торрент  

Тень стрекозыГод выпуска: 2015
Страна: Россия
Жанр: детектив, мелодрама
Продолжительность: 4 х ~ 00:45:00
Субтитры: отсутствуют

Режиссер: Наталия Микрюкова



В ролях:

Карина Разумовская, Илья Соколовский, Антон Батырев, Юрий Анпилогов, Максим Радугин, Анастасия Немец, Наталья Беляева, Михаил Богдасаров, Анастасия Привалова, Сергей Холмогоров, Тамара Спиричева, Виктор Потапешкин, Виталий Кухтин, Игорь Климов, Владимир Денисов, Андрей Артасов, Александр Коврижных, Елена Сачук, Лидия Арефьева, Роман Еремин

Описание:

В родном городке московской журналистки Ланы происходит загадочное убийство. Погибла ее давняя приятельница Светлана - эксцентричная особа, вечно подражавшая более успешной подруге. Таинственные послания, оставленные покойной, заставляют Лану начать собственное расследование: похоже, к смерти подруги причастен любимый мужчина Ланы - исчезнувший пять лет назад спецназовец Валера, носивший кличку «Стрекоза». Желание оправдать Валеру и развеять собственные подозрения доводит Лану до беды - кто-то, остающийся в тени, ясно пытается дать ей знать - она последует за Светой, если не уберется из города.

Качество: WEB-DL 1080p
Формат: MKV

Видео: MPEG-4 AVC, ~ 2500 Кбит/с, 1920x1080
Аудио: AC3, 2 ch, 192 Кбит/с
скриншот   скриншот   скриншот  

Общее
Уникальный идентификатор : 258959187031479276353989531166578016863 (0xC2D1B9AB26B51692562BE71B5A73825F)
Полное имя : E:Ten.strekozy.2015.WEB-DL.1080.Files-x\01.Ten.strekozy.2015.WEB-DL.1080.Files-x.mkv
Формат : Matroska
Версия формата : Version 4 / Version 2
Размер файла : 890 Мбайт
Продолжительность : 46 м. 0 с.
Общий поток : 2706 Кбит/сек
Программа кодирования : Lavf56.25.101
Библиотека кодирования : Lavf56.25.101

Видео
Идентификатор : 1
Формат : AVC
Формат/Информация : Advanced Video Codec
Профиль формата : High@L4
Настройки формата : CABAC / 3 Ref Frames
Параметр CABAC формата : Да
Параметр RefFrames формата : 3 кадра
Идентификатор кодека : V_MPEG4/ISO/AVC
Продолжительность : 46 м. 0 с.
Битрейт : 2460 Кбит/сек
Ширина : 1920 пикселей
Высота : 1080 пикселей
Соотношение сторон : 16:9
Режим частоты кадров : Постоянный
Частота кадров : 25,000 кадров/сек
Цветовое пространство : YUV
Субдискретизация насыщенности : 4:2:0
Битовая глубина : 8 бит
Тип развёртки : Прогрессивная
Бит/(Пиксели*Кадры) : 0.047
Размер потока : 809 Мбайт (91%)
Default : Да
Forced : Нет

Аудио
Идентификатор : 2
Формат : AC-3
Формат/Информация : Audio Coding 3
Идентификатор кодека : A_AC3
Продолжительность : 46 м. 0 с.
Вид битрейта : Постоянный
Битрейт : 192 Кбит/сек
Каналы : 2 канала
Расположение каналов : Front: L R
Частота : 44,1 КГц
Частота кадров : 28,711 кадров/сек (1536 SPF)
Битовая глубина : 16 бит
Метод сжатия : С потерями
Задержка видео : -40 мс.
Размер потока : 63,2 Мбайт (7%)
ServiceKind/String : Complete Main
Default : Да
Forced : Нет

pb.wtf



Скачать Тень стрекозы через торрент http://img12.lostpic.net/2018/03/10/0262f65348e87ca6e989578155677bbd.jpg Скачать фильм Тень стрекозы через торрент бесплантно в хорошем качестве Описание: В родном городке московской журналистки Ланы происходит загадочное убийство. Погибла ее давняя приятельница Светлана - ... 10 10 3
Торрент: Зарегистрирован [2018-03-10 18:25] · скачан: 69 раз
Статус: √ проверено
Размер: 3.44 GB
Как cкачать? Как скачать Тень стрекозы через торрент | qTorrent

% Раздел Тема Автор DL S | L
Наши сериалы [ 2.34 GB ] Тень стрекозы / Серии 1-4 из 4 [2015 WEB-DLRip] bober100 Скачать
1 | 0

28-11-2019 20:33  

Отключить всю рекламу на сайте

    Дорогой пользователь! Огромная просьба, поблагодарите релизера, оцените раздачу и оставьте свои комментарий, если Вы скачали Тень стрекозы через торрент бесплатно! Внесите свою лепту в развитие PiratBit!
    Комментировать посты могут только пользователи прошедшие не сложную регистрацию
    Показать сообщения:    

    Тень стрекозы через торрент
    Скачать бесплатно Тень стрекозы
    Тень стрекозы скачать торрент
    Тень стрекозы смотреть онлайн
    Cкачать фильм Тень стрекозы бесплатно
    Тень стрекозы скачать торрент в хорошем качестве
    Тень стрекозы смотреть онлайн бесплатно в хорошем качестве


    Вы не можете начинать темы
    Вы не можете отвечать на сообщения
    Вы не можете редактировать свои сообщения
    Вы не можете удалять свои сообщения
    Вы не можете голосовать в опросах
    Вы не можете прикреплять файлы к сообщениям
    Вы можете скачивать файлы