Ссылка на приватное зеркало нашего сайта всего за 1$. Внимание количество ограничено!!!

2 сезон

iTunes

1 сезон

1

2 сезон

2 сезон

iTunes

1 сезон

RePack

30

Новинка

ВАЖНО

ИГРА 18+

pack

RePack

MK11
pack

Забери бонус

RePack

jed

!!Акция!!

Alien_Rage

RePack

fifa19

RePack

Assassins Creed: Odyssey

RePack

NEED FOR SPEED™ PAYBACK

4 сезон

9 сезон

Бесстыжие 9 сезон

Все сериалы

все сериалы на PB.wtf

RePack

FAR CRY 5
  

Клятва / The Oath / Сезон: 1 / Серии 1-10 из 10 (Джефф Т. Томас) [2018, США, драма, WEBRip] MVO [BaibaKo] pb.wtf

Клятва через торрент pb.wtf

Размер: 5.07 GB | Добавлен: 2 года 8 мес. назад | Торрент скачан:71 раз
Скачать  

11-03-2018 01:49 Клятва Скачать торрент  

Клятва / The Oath


  • Год выпуска: 2018
  • Страна: США
  • Жанр: драма, криминал
  • Продолжительность: 00:42:00 (Серия)
  • Перевод: Профессиональный многоголосый закадровый [BaibaKo]

  • Режиссер: Джефф Т. Томас
  • В ролях:
    Катрина Ло, Джозеф Джулиан Сория, Элизабет Рём, Шон Бин, Райан Квантен, Кори Хардрикт, Арлен Эскарпета и др.



  • Полицейский Том Хэммонд живёт двойной жизнью. Страж закона — лидер жестокой преступной группировки «Вороны», состоящей из полицейских. Но наказание неминуемо: о преступной деятельности Хэммонда узнает спецагент ФБР, работающий под прикрытием. Дело доходит до суда, и бывший коп отправляется в тюрьму, получив длительный срок. Но Хэммонд не теряет надежды выйти на свободу и вновь стать лидером банды, отомстив всем, кто его предал.
  • Рейтинг:

    rating
  • Качество: WEBRip
  • Формат: :AVI
  • Видео кодек: XviD
  • Аудио кодек: MP3
  • Видео: 1446 Кбит/сек, 720*400 (16:9), в 23,976 (24000/1001) кадра/сек, MPEG-4 Visual (XviD)
  • Аудио №1: русский 192 Кбит/сек, 48,0 КГц, 2 канала, MPEG Audio (MP3) |[BaibaKo]|
  • Релиз от: GEKADOL

    Внимание! Раздача ведётся путём добавления новых серий; при каждом добавлении создаётся новый торрент. Чтобы начать докачку новой серии, пользователям необходимо сделать следующее:
    (1) остановить скачивание,
    (2) удалить старый торрент у себя из клиента (старые серии удалять не надо),
    (3) скачать новый торрент и запустить его у себя в клиенте вместо старого, при этом указать клиенту путь в старую папку куда и должно происходить скачивание новых серий.
    Ваш клиент при этом должен произвести хеширование (проверку) старой папки (если не производит сам - помогите ему сделать это), и будет докачивать только те серии которых у вас ещё нет. Старые серии при этом не удаляются, а продолжают раздаваться!
    Eсли вы уже удалили старые серии, то предотвратить повторную закачку старых серий можно, отжав галочку в соответствующих местах при запуске нового торрента. По возможности, желательно не удалять старые серии как можно дольше чтобы релизёр не столько продолжал раздавать старые серии, а смог сконцентрироваться на новых.
    Общее
    Полное имя : F:\Клятва (The Oath)\The.Oath.s01e04.WEBRip.XviD.Rus.BaibaKo.avi
    Формат : AVI
    Формат/Информация : Audio Video Interleave
    Размер файла : 502 Мбайт
    Продолжительность : 42 м. 33 с.
    Общий поток : 1648 Кбит/сек

    Видео
    Идентификатор : 0
    Формат : MPEG-4 Visual
    Профиль формата : Advanced Simple@L5
    Настройки формата : BVOP2
    Параметр BVOP формата : 2
    Параметр QPel формата : Нет
    Параметр GMC формата : Без точки перехода
    Параметр матрицы формата : Default (H.263)
    Идентификатор кодека : XVID
    Идентификатор кодека/Подсказка : XviD
    Продолжительность : 42 м. 33 с.
    Битрейт : 1446 Кбит/сек
    Ширина : 720 пикселей
    Высота : 400 пикселей
    Соотношение сторон : 16:9
    Частота кадров : 23,976 (24000/1001) кадра/сек
    Цветовое пространство : YUV
    Субдискретизация насыщенности : 4:2:0
    Битовая глубина : 8 бит
    Тип развёртки : Прогрессивная
    Метод сжатия : С потерями
    Бит/(Пиксели*Кадры) : 0.209
    Размер потока : 440 Мбайт (88%)
    Библиотека кодирования : XviD 67

    Аудио
    Идентификатор : 1
    Формат : MPEG Audio
    Версия формата : Version 1
    Профиль формата : Layer 3
    Настройки формата : Joint stereo / MS Stereo
    Идентификатор кодека : 55
    Идентификатор кодека/Подсказка : MP3
    Продолжительность : 42 м. 33 с.
    Вид битрейта : Постоянный
    Битрейт : 192 Кбит/сек
    Каналы : 2 канала
    Частота : 48,0 КГц
    Метод сжатия : С потерями
    Задержка видео : 18 мс.
    Размер потока : 58,5 Мбайт (12%)
    Выравнивание : Разделение по промежуткам
    Продолжительность промежутка : 42 мс. (1,00 видеокадр)
    Время предзагрузки промежутка : 500 мс.
    Библиотека кодирования : LAME3.99.5ЄЄЄЄЄЄЄЄЄЄ





    Скриншоты:
    скриншот   скриншот   скриншот   скриншот   скриншот   скриншот   скриншот  
    скриншот  

    Раздача ведётся путём добавления новых серий. Добавлена 5-10 серия (12.03.2018).Просьба перекачать торрент файл.

    pb.wtf



  • Скачать Клятва через торрент http://pic1.kartinco.top/images/11/6qaio.jpg Скачать фильм Клятва через торрент бесплантно в хорошем качестве qw.png Полицейский Том Хэммонд живёт двойной жизнью. Страж закона — лидер жестокой преступной группировки «Вороны», состоящей из ... 8.4 10 5
    Info! Золотая раздача, скачанное не засчитывается.
    Торрент: Зарегистрирован [2018-03-12 12:07] · скачан: 71 раз
    Статус: √ проверено
    Размер: 5.07 GB
    Как cкачать? Как скачать Клятва через торрент | qTorrent

    % Раздел Тема Автор DL S | L
    Зарубежные сериалы [ 14.93 GB ] Клятва / The Oath / Сезон: 2 / Серии: 1-8 из 8 [2019 WEB-DL 1080p] [MVO] killermax2013 Скачать
    1 | 0
    Зарубежные сериалы [ 15.56 GB ] Клятва / The Oath / Сезон: 2 / Серии: 1-8 из 8 [2019 WEB-DL 1080p] MVO [Jaskier] bober100 Скачать
    1 | 0
    Зарубежные сериалы [ 15.28 GB ] Клятва / The Oath / Сезон: 2 / Серии 1-8 из 8 [2018 WEBRip 1080p] [MVO] killermax2013 Скачать
    1 | 0
    Зарубежные сериалы [ 19.55 GB ] Клятва / The Oath / Сезон: 1 / Серии 1-10 из 10 [2018 WEBRip 1080p] [MVO] killermax2013 Скачать
    1 | 0
    Зарубежные сериалы [ 5.54 GB ] Клятва / The Oath / Сезон: 1 / Серии 1-10 из 10 [2018 WEBRip] [MVO] killermax2013 Скачать
    1 | 0
    Зарубежные сериалы [ 8.36 GB ] Клятва / The Oath / Сезон: 1 / Серии: 1-10 из 10 [2018 биография WEBRip 720p] MVO [Jaskier] bober100 Скачать
    1 | 0
    Зарубежные сериалы [ 5.37 GB ] Клятва / The Oath / Сезон: 1 / Серии: 1-10 из 10 [2018 биография WEB-DLRip] MVO [NewStudio] bober100 Скачать
    1 | 0


    Последний раз редактировалось: GEKADOL (2018-03-12 12:07), всего редактировалось 1 раз

    28-11-2019 20:33  

    Отключить всю рекламу на сайте

    12-03-2018 07:41 Клятва Скачать торрент  

    а чё 5 серия в без перевода?pb.wtf



    12-03-2018 12:08 Клятва Скачать торрент  

    maxut80 писал(а):

    а чё 5 серия в без перевода?

    Заменена!!!! pb.wtf



      Дорогой пользователь! Огромная просьба, поблагодарите релизера, оцените раздачу и оставьте свои комментарий, если Вы скачали Клятва через торрент бесплатно! Внесите свою лепту в развитие PiratBit!
      Комментировать посты могут только пользователи прошедшие не сложную регистрацию
      Показать сообщения:    

      Клятва через торрент
      Скачать бесплатно Клятва
      Клятва скачать торрент
      Клятва смотреть онлайн
      Cкачать фильм Клятва бесплатно
      Клятва скачать торрент в хорошем качестве
      Клятва смотреть онлайн бесплатно в хорошем качестве


      Вы не можете начинать темы
      Вы не можете отвечать на сообщения
      Вы не можете редактировать свои сообщения
      Вы не можете удалять свои сообщения
      Вы не можете голосовать в опросах
      Вы не можете прикреплять файлы к сообщениям
      Вы можете скачивать файлы