Ссылка на приватное зеркало нашего сайта всего за 1$. Внимание количество ограничено!!!

2 сезон

iTunes

1 сезон

1

iTunes

iTunes

iTunes

1 сезон

RePack

30

ИГРА 18+

pack

ВАЖНО

!!Акция!!

Alien_RageХит недели

RePack

MK11
pack

Забери бонус

RePack

jed

!!Акция!!

Alien_Rage

RePack

fifa19

RePack

Assassins Creed: Odyssey

RePack

NEED FOR SPEED™ PAYBACK

4 сезон

9 сезон

Бесстыжие 9 сезон

Все сериалы

все сериалы на PB.wtf

RePack

FAR CRY 5
  

Невозможная женщина / Серия 1-4 из 4 / (Владимир Басов (младший), Ольга Басова) [2018 г., Мелодрама, SATRip] pb.wtf

Невозможная женщина через торрент pb.wtf

Размер: 2.32 GB | Добавлен: 2 года 7 мес. назад | Торрент скачан:82 раза
Скачать  

11-03-2018 10:03 Невозможная женщина Скачать торрент  

Невозможная женщина / Серия 1-4 из 4 /
Год выпуска: 2018
Страна: Россия
Жанр: Мелодрама
Продолжительность: 4 х 00:46:00
Субтитры: нет

Режиссер: Владимир Басов (младший), Ольга Басова

В ролях: Мария Аниканова, Ярослав Бойко, Полина Филоненко, Людмила Гаврилова, Владимир Басов (младший), Юлианна Михневич, Дмитрий Пустильник, Мария Возба, Николай Зимич, Валентина Белько, Игорь Денисов

Описание: Татьяна Муравьева (Людмила Аниканова) – известная писательница, автор детективных романов. Несмотря на свою популярность, героиня одинока. Два ее предыдущих брака сложились неудачно, и теперь она окончательно разочаровалась в мужчинах. Когда Татьяна узнает, что на месте ее любимой старенькой дачи в Свешнево планируется строительство крупного бизнес-центра, она возглавляет протестное движение дачников. Тем временем племянница Татьяны – Лиза (Полина Филоненко) начинает встречаться с Виктором Максаковым (Ярослав Бойко) – главой той самой строительной компании, которая собирается отобрать землю в Свешнево. Лизе удается произвести впечатление на Виктора. Ей кажется, что ее мечта о богатой жизни вот-вот сбудется. Однако ее тетя выступает на телевидении и все активнее вставляет палки в колеса многомиллионного контракта Максакова. Теперь под вопросом оказывается не только дачная застройка, но отношения тети и племянницы. Чтобы понять, как остановить склочную писательницу, Максаков нанимается к ней на дачу строить навес над крыльцом в качестве… обычного рабочего…

Качество: SATRip
Формат: AVI
Видео кодек: XviD
Аудио кодек: MP3
Видео: 720x400 (1.80:1), 25 fps, XviD build 50 ~1800 kbps
Аудио#1: 48 kHz, MPEG Layer 3, 2 ch, ~128.00 kbps avg
скриншот   скриншот   скриншот   скриншот  

General
Complete name : H:\релизы.торрентфайл\Nevozmozhnaja.zhenshhina.SATRip.[www.riperam.org]\Nevozmozhnaja.zhenshhina.01.SATRip.[www.riperam.org].avi
Format : AVI
Format/Info : Audio Video Interleave
File size : 633 MiB
Duration : 45mn 38s
Overall bit rate : 1 938 Kbps
Writing application : VirtualDubMod 1.5.10.3 | www.virtualdub-fr.org || (build 2550/release)
Writing library : VirtualDubMod build 2550/release

Video
ID : 0
Format : MPEG-4 Visual
Format profile : Advanced Simple@L5
Format settings, BVOP : 2
Format settings, QPel : No
Format settings, GMC : No warppoints
Format settings, Matrix : Default (H.263)
Codec ID : XVID
Codec ID/Hint : XviD
Duration : 45mn 38s
Bit rate : 1 800 Kbps
Width : 720 pixels
Height : 400 pixels
Display aspect ratio : 16:9
Frame rate : 25.000 fps
Color space : YUV
Chroma subsampling : 4:2:0
Bit depth : 8 bits
Scan type : Progressive
Compression mode : Lossy
Bits/(Pixel*Frame) : 0.250
Stream size : 588 MiB (93%)
Writing library : XviD 1.2.1 (UTC 2008-12-04)

Audio
ID : 1
Format : MPEG Audio
Format version : Version 1
Format profile : Layer 3
Mode : Joint stereo
Mode extension : MS Stereo
Codec ID : 55
Codec ID/Hint : MP3
Duration : 45mn 38s
Bit rate mode : Constant
Bit rate : 128 Kbps
Channel(s) : 2 channels
Sampling rate : 48.0 KHz
Compression mode : Lossy
Stream size : 41.8 MiB (7%)
Alignment : Aligned on interleaves
Interleave, duration : 40 ms (1.00 video frame)
Interleave, preload duration : 504 ms
Writing library : LAME3.99r
Encoding settings : -m j -V 4 -q 9 -lowpass 17 -b 128

pb.wtf



Скачать Невозможная женщина через торрент http://i103.fastpic.ru/big/2018/0311/0f/2f24b1f45babefd8c3c26332295e000f.jpg Скачать фильм Невозможная женщина через торрент бесплантно в хорошем качестве Описание: Татьяна Муравьева (Людмила Аниканова) – известная писательница, автор детективных романов. Несмотря на свою популярность, героиня ... 7.8 10 4
Торрент: Зарегистрирован [2018-03-11 10:03] · скачан: 82 раз
Статус: √ проверено
Размер: 2.32 GB
Как cкачать? Как скачать Невозможная женщина через торрент | qTorrent

28-11-2019 20:33  

Отключить всю рекламу на сайте

    Дорогой пользователь! Огромная просьба, поблагодарите релизера, оцените раздачу и оставьте свои комментарий, если Вы скачали Невозможная женщина через торрент бесплатно! Внесите свою лепту в развитие PiratBit!
    Комментировать посты могут только пользователи прошедшие не сложную регистрацию
    Показать сообщения:    

    Невозможная женщина через торрент
    Скачать бесплатно Невозможная женщина
    Невозможная женщина скачать торрент
    Невозможная женщина смотреть онлайн
    Cкачать фильм Невозможная женщина бесплатно
    Невозможная женщина скачать торрент в хорошем качестве
    Невозможная женщина смотреть онлайн бесплатно в хорошем качестве


    Вы не можете начинать темы
    Вы не можете отвечать на сообщения
    Вы не можете редактировать свои сообщения
    Вы не можете удалять свои сообщения
    Вы не можете голосовать в опросах
    Вы не можете прикреплять файлы к сообщениям
    Вы можете скачивать файлы