Ссылка на приватное зеркало нашего сайта всего за 1$. Внимание количество ограничено!!!

2 сезон

iTunes

1 сезон

1

iTunes

iTunes

iTunes

1 сезон

RePack

30

ИГРА 18+

pack

ВАЖНО

!!Акция!!

Alien_RageХит недели

RePack

MK11
pack

Забери бонус

RePack

jed

!!Акция!!

Alien_Rage

RePack

fifa19

RePack

Assassins Creed: Odyssey

RePack

NEED FOR SPEED™ PAYBACK

4 сезон

9 сезон

Бесстыжие 9 сезон

Все сериалы

все сериалы на PB.wtf

RePack

FAR CRY 5
  

Новый муж / Серии 1-4 из 4 (Владимир Устюгов) [2018, Драма, WEB-DLRip] pb.wtf

Новый муж через торрент pb.wtf

Размер: 2.74 GB | Добавлен: 2 года 7 мес. назад | Торрент скачан:66 раз
Скачать  

11-03-2018 10:42 Новый муж Скачать торрент  

Новый мужГод выпуска: 2018
Страна: Россия
Жанр: Драма
Продолжительность: 2 x ~ 01:30:00 (два файла по две серии)
Субтитры: отсутствуют

Режиссер: Владимир Устюгов



В ролях:

Ксения Кутепова, Сергей Маховиков, Марат Башаров, Светлана Немоляева, Александр Никитин (III), Ёла Санько, Екатерина Воронина (II)

Описание:

Тамара Волина живет в Москве вместе с мужем Владимиром и дочерью Настей. Тамара – родом из деревни, а ее муж – ученый из профессорской семьи. Однако ни воспитание, ни образование не помогли Владимиру стать достойным человеком. Он пьет и избивает Тамару. Настя совсем перестала учиться и, в итоге, оказалась на грани отчисления из элитной школы. Тамара скрывает правду от всех, даже от свекрови. Единственный человек, которому Тамара невольно поведала о кошмаре, в котором живет – директор школы Насти – Евгений Ильин, бывший военный...

Качество: WEB-DLRip
Формат: AVI

Видео: XviD, ~ 1960 Кбит/с, 720x400
Аудио: AC3, 2 ch, 192 Кбит/с
скриншот   скриншот   скриншот   скриншот  

Общее
Полное имя : D:\Novyj.muz.2017.WEB-DLRip.Files-x\01.Novyj.muz.2017.WEB-DLRip.Files-x.avi
Формат : AVI
Формат/Информация : Audio Video Interleave
Размер файла : 1,37 Гбайт
Продолжительность : 1 ч. 30 м.
Общий поток : 2164 Кбит/сек
Программа кодирования : VirtualDubMod 1.5.10.3 | www.virtualdub-fr.org || (build 2550/release)
Библиотека кодирования : VirtualDubMod build 2550/release

Видео
Идентификатор : 0
Формат : MPEG-4 Visual
Профиль формата : Advanced Simple@L5
Параметр BVOP формата : 1
Параметр QPel формата : Нет
Параметр GMC формата : Без точки перехода
Параметр матрицы формата : Выборочная
Идентификатор кодека : XVID
Идентификатор кодека/Подсказка : XviD
Продолжительность : 1 ч. 30 м.
Битрейт : 1962 Кбит/сек
Ширина : 720 пикселей
Высота : 400 пикселей
Соотношение сторон : 16:9
Частота кадров : 25,000 кадров/сек
Цветовое пространство : YUV
Субдискретизация насыщенности : 4:2:0
Битовая глубина : 8 бит
Тип развёртки : Прогрессивная
Метод сжатия : С потерями
Бит/(Пиксели*Кадры) : 0.272
Размер потока : 1,24 Гбайт (91%)
Библиотека кодирования : XviD 73

Аудио
Идентификатор : 1
Формат : AC-3
Формат/Информация : Audio Coding 3
Расширение режима : CM (complete main)
Параметр Endianness формата : Big
Идентификатор кодека : 2000
Продолжительность : 1 ч. 30 м.
Вид битрейта : Постоянный
Битрейт : 192 Кбит/сек
Каналы : 2 канала
Расположение каналов : Front: L R
Частота : 48,0 КГц
Частота кадров : 31,250 кадров/сек (1536 spf)
Метод сжатия : С потерями
Размер потока : 124 Мбайт (9%)
Выравнивание : Разделение по промежуткам
Продолжительность промежутка : 40 мс. (1,00 видеокадр)
Время предзагрузки промежутка : 500 мс.

pb.wtf



Скачать Новый муж через торрент http://i99.fastpic.ru/big/2018/0310/16/0f643c3a764b238d1a9885c73f014716.jpg Скачать фильм Новый муж через торрент бесплантно в хорошем качестве Описание: Тамара Волина живет в Москве вместе с мужем Владимиром и дочерью Настей. Тамара – родом из деревни, а ее муж – ученый из ... 10 10 4
Торрент: Зарегистрирован [2018-03-11 10:42] · скачан: 66 раз
Статус: √ проверено
Размер: 2.74 GB
Как cкачать? Как скачать Новый муж через торрент | qTorrent

% Раздел Тема Автор DL S | L
Наши сериалы [ 2.25 GB ] Новый муж / Серии 1-4 из 4 [2018 WEB-DLRip-AVC] bober100 Скачать
1 | 0
Наши сериалы [ 2.42 GB ] Новый муж / Серия 1-4 из 4 / [2018 SATRip] oleg8 Скачать
1 | 0

28-11-2019 20:33  

Отключить всю рекламу на сайте

    Дорогой пользователь! Огромная просьба, поблагодарите релизера, оцените раздачу и оставьте свои комментарий, если Вы скачали Новый муж через торрент бесплатно! Внесите свою лепту в развитие PiratBit!
    Комментировать посты могут только пользователи прошедшие не сложную регистрацию
    Показать сообщения:    

    Новый муж через торрент
    Скачать бесплатно Новый муж
    Новый муж скачать торрент
    Новый муж смотреть онлайн
    Cкачать фильм Новый муж бесплатно
    Новый муж скачать торрент в хорошем качестве
    Новый муж смотреть онлайн бесплатно в хорошем качестве


    Вы не можете начинать темы
    Вы не можете отвечать на сообщения
    Вы не можете редактировать свои сообщения
    Вы не можете удалять свои сообщения
    Вы не можете голосовать в опросах
    Вы не можете прикреплять файлы к сообщениям
    Вы можете скачивать файлы