Ссылка на приватное зеркало нашего сайта всего за 1$. Внимание количество ограничено!!!

2 сезон

iTunes

1 сезон

1

2 сезон

2 сезон

iTunes

1 сезон

RePack

30

Новинка

ВАЖНО

ИГРА 18+

pack

RePack

MK11
pack

Забери бонус

RePack

jed

!!Акция!!

Alien_Rage

RePack

fifa19

RePack

Assassins Creed: Odyssey

RePack

NEED FOR SPEED™ PAYBACK

4 сезон

9 сезон

Бесстыжие 9 сезон

Все сериалы

все сериалы на PB.wtf

RePack

FAR CRY 5
  

Реквием / Requiem / Сезон: 1 / Серии: 1-6 из 6 (Махалия Бело) [2018, фэнтези, триллер, WEBRip] MVO [Jaskier] pb.wtf

Реквием через торрент pb.wtf

Размер: 4.34 GB | Добавлен: 2 года 8 мес. назад | Торрент скачан:15 раз
Скачать  

11-03-2018 12:49 Реквием Скачать торрент  

Реквием / RequiemГод выпуска: 2018
Страна: Великобритания
Жанр: фэнтези, триллер
Продолжительность: 01:00:00
Перевод: Профессиональный многоголосый - Jaskier
Субтитры: отсутствуют

Режиссер: Махалия Бело

rating

В ролях:

Шан Риз-Уильямс, Даррен Эванс, Чарльз Дэйл, Джейн Торн, Николас Энскомб, Марк Престон, Алекс Брок

Описание:

Жизнь Матильды, талантливой виолончелистки, переворачивается с ног на голову, после того как ее мать неожиданно совершает самоубийство. В результате трагедии героиня сериала «Реквием» начинает сомневаться во всем, что она знает о себе. В поисках правды она отправляется в валлийскую деревушку, где в 1994 году загадочно исчез ребенок. Разобраться в собственном прошлом Матильде помогают лучший друг Хэл и местный житель по имени Ник, который, возможно, является не тем, кем кажется на первый взгляд.

Качество: WEBRip
Формат: AVI

Видео: XviD, ~ 1500 kbps, 720x400 (16:9), 25.000 fps
Аудио#1: MP3, 48,0 КГц, 2 ch, 128 kbps - Rus
Аудио#2: MP3, 48,0 КГц, 2 ch, 128 kbps - Eng
скриншот   скриншот   скриншот  

Общее
Полное имя : D:\Requiem Season 1 (WEBRip l 400p l Jaskier)\Requiem.S01E01.WEBRip.Jaskier.avi
Формат : AVI
Формат/Информация : Audio Video Interleave
Размер файла : 728 Мбайт
Продолжительность : 57 м. 27 с.
Общий поток : 1770 Кбит/сек
Программа кодирования : VirtualDubMod 1.5.10.3 | www.virtualdub-fr.org || (build 2550/release)
Библиотека кодирования : VirtualDubMod build 2550/release

Видео
Идентификатор : 0
Формат : MPEG-4 Visual
Профиль формата : Advanced Simple@L5
Параметр BVOP формата : 2
Параметр QPel формата : Нет
Параметр GMC формата : Без точки перехода
Параметр матрицы формата : Default (MPEG)
Идентификатор кодека : XVID
Идентификатор кодека/Подсказка : XviD
Продолжительность : 57 м. 27 с.
Битрейт : 1500 Кбит/сек
Ширина : 720 пикселей
Высота : 400 пикселей
Соотношение сторон : 16:9
Частота кадров : 25,000 кадров/сек
Цветовое пространство : YUV
Субдискретизация насыщенности : 4:2:0
Битовая глубина : 8 бит
Тип развёртки : Прогрессивная
Метод сжатия : С потерями
Бит/(Пиксели*Кадры) : 0.208
Размер потока : 616 Мбайт (85%)
Библиотека кодирования : XviD 1.2.1 (UTC 2008-12-04)

Аудио #1
Идентификатор : 1
Формат : MPEG Audio
Версия формата : Version 1
Профиль формата : Layer 3
Режим : Joint stereo
Расширение режима : MS Stereo
Идентификатор кодека : 55
Идентификатор кодека/Подсказка : MP3
Продолжительность : 57 м. 27 с.
Вид битрейта : Постоянный
Битрейт : 128 Кбит/сек
Каналы : 2 канала
Частота : 48,0 КГц
Метод сжатия : С потерями
Размер потока : 52,6 Мбайт (7%)
Выравнивание : Соединение по промежуткам
Продолжительность промежутка : 40 мс. (1,00 видеокадр)
Время предзагрузки промежутка : 504 мс.
Библиотека кодирования : LAME3.100Є

Аудио #2
Идентификатор : 2
Формат : MPEG Audio
Версия формата : Version 1
Профиль формата : Layer 3
Режим : Joint stereo
Расширение режима : MS Stereo
Идентификатор кодека : 55
Идентификатор кодека/Подсказка : MP3
Продолжительность : 57 м. 27 с.
Вид битрейта : Постоянный
Битрейт : 128 Кбит/сек
Каналы : 2 канала
Частота : 48,0 КГц
Метод сжатия : С потерями
Размер потока : 52,6 Мбайт (7%)
Выравнивание : Соединение по промежуткам
Продолжительность промежутка : 40 мс. (1,00 видеокадр)
Время предзагрузки промежутка : 504 мс.
Библиотека кодирования : LAME3.100Є

Когда раздача ведётся путём добавления новых серий, при каждом добавлении создётся новый торрент. Чтобы начать докачку новой серии, пользователям необходимо сделать следующее:
(1) остановить скачивание,
(2) удалить старый торрент у себя из клиента (старые серии удалять не надо),
(3) скачать новый торрент и запустить его у себя в клиенте вместо старого, при этом указать клиенту путь в старую папку, куда и должно происходить скачивание новых серий.
Ваш клиент при этом должен произвести хеширование (проверку) старой папки (если не производит сам - помогите ему сделать это), и будет докачивать только те серии, которых у вас ещё нет. Старые серии при этом не удаляются, а продолжают раздаваться!
Eсли вы уже удалили старые серии, то предотвратить повторную закачку старых серий можно, отжав галочку в соответсвующих местах при запуске нового торрента. По возможности, желательно не удалять старые серии как можно дольше, чтобы релизёр не столько продолжал раздавать старые серии, а смог сконцентрироваться на новых.
pb.wtf



Скачать Реквием через торрент http://i102.fastpic.ru/big/2018/0311/f0/4dac121570da0e01701341e885b006f0.jpg Скачать фильм Реквием через торрент бесплантно в хорошем качестве Описание: Жизнь Матильды, талантливой виолончелистки, переворачивается с ног на голову, после того как ее мать неожиданно совершает ... 7 10 3
Торрент: Зарегистрирован [2018-03-20 22:29] · скачан: 15 раз
Статус: √ проверено
Размер: 4.34 GB
Как cкачать? Как скачать Реквием через торрент | qTorrent

% Раздел Тема Автор DL S | L
Зарубежные сериалы [ 10.28 GB ] Реквием / Requiem / Сезон: 1 / Серии: 1-6 из 6 [2018 WEBRip 720p] MVO [Jaskier] bober100 Скачать
1 | 0
Зарубежные сериалы [ 4.1 GB ] Реквием / Requiem / Сезон: 1 / Серии: 1-6 из 6 [2018 WEB-DLRip] MVO [NewStudio] bober100 Скачать
1 | 0

28-11-2019 20:33  

Отключить всю рекламу на сайте

    Дорогой пользователь! Огромная просьба, поблагодарите релизера, оцените раздачу и оставьте свои комментарий, если Вы скачали Реквием через торрент бесплатно! Внесите свою лепту в развитие PiratBit!
    Комментировать посты могут только пользователи прошедшие не сложную регистрацию
    Показать сообщения:    

    Реквием через торрент
    Скачать бесплатно Реквием
    Реквием скачать торрент
    Реквием смотреть онлайн
    Cкачать фильм Реквием бесплатно
    Реквием скачать торрент в хорошем качестве
    Реквием смотреть онлайн бесплатно в хорошем качестве


    Вы не можете начинать темы
    Вы не можете отвечать на сообщения
    Вы не можете редактировать свои сообщения
    Вы не можете удалять свои сообщения
    Вы не можете голосовать в опросах
    Вы не можете прикреплять файлы к сообщениям
    Вы можете скачивать файлы