Ссылка на приватное зеркало нашего сайта всего за 1$. Внимание количество ограничено!!!

2 сезон

iTunes

1 сезон

1

iTunes

iTunes

iTunes

1 сезон

RePack

30

ИГРА 18+

pack

ВАЖНО

!!Акция!!

Alien_RageХит недели

RePack

MK11
pack

Забери бонус

RePack

jed

!!Акция!!

Alien_Rage

RePack

fifa19

RePack

Assassins Creed: Odyssey

RePack

NEED FOR SPEED™ PAYBACK

4 сезон

9 сезон

Бесстыжие 9 сезон

Все сериалы

все сериалы на PB.wtf

RePack

FAR CRY 5
  

Дорога из жёлтого кирпича / Серии 1-4 из 4 (Екатерина Шагалова) [2017, Мелодрама, WEB-DLRip] pb.wtf

Дорога из жёлтого кирпича через торрент pb.wtf

Размер: 2.36 GB | Добавлен: 2 года 7 мес. назад | Торрент скачан:79 раз
Скачать  

11-03-2018 13:04 Дорога из жёлтого кирпича Скачать торрент  

Дорога из жёлтого кирпичаГод выпуска: 2017
Страна: Россия
Жанр: Мелодрама
Продолжительность: 4 x ~ 00:46:00
Субтитры: отсутствуют

Режиссер: Екатерина Шагалова



В ролях:

Дмитрий Марьянов, Мария Шалаева, Даниил Спиваковский, Екатерина Волкова, Евгений Сидихин, Екатерина Вуличенко, Андрей Барило, Иван Щенин, Александр Булатов, Григорий Середа

Описание:

Девушка Варя случайно встречает свою детскую любовь — Ивана Петровича Соболя. От своей школьной подруги она узнает, что тот потерял жену и ребенка в автомобильной аварии. Варя решает рассказать Ивану историю о том, как 10 лет назад в клинике, где она работала, перепутали ЭКО материалы, и о том, что у него в другой семье растет его биологический сын...

Качество: WEB-DLRip
Формат: AVI

Видео: XviD, ~ 1666 Кбит/с, 720x400
Аудио: AC3, 2 ch, 192 Кбит/с
скриншот   скриншот   скриншот   скриншот  

Общее
Полное имя : D:\Doroga.iz.zeltovo.kirpicha.2017.WEB-DLRip.Files-x\01.Doroga.iz.zeltovo.kirpicha.2017.WEB-DLRip.Files-x.avi
Формат : AVI
Формат/Информация : Audio Video Interleave
Размер файла : 600 Мбайт
Продолжительность : 44 м. 56 с.
Общий поток : 1867 Кбит/сек
Программа кодирования : VirtualDubMod 1.5.10.3 | www.virtualdub-fr.org || (build 2550/release)
Библиотека кодирования : VirtualDubMod build 2550/release

Видео
Идентификатор : 0
Формат : MPEG-4 Visual
Профиль формата : Advanced Simple@L5
Параметр BVOP формата : 1
Параметр QPel формата : Нет
Параметр GMC формата : Без точки перехода
Параметр матрицы формата : Выборочная
Идентификатор кодека : XVID
Идентификатор кодека/Подсказка : XviD
Продолжительность : 44 м. 56 с.
Битрейт : 1666 Кбит/сек
Ширина : 720 пикселей
Высота : 400 пикселей
Соотношение сторон : 16:9
Частота кадров : 24,000 кадра/сек
Цветовое пространство : YUV
Субдискретизация насыщенности : 4:2:0
Битовая глубина : 8 бит
Тип развёртки : Прогрессивная
Метод сжатия : С потерями
Бит/(Пиксели*Кадры) : 0.241
Размер потока : 535 Мбайт (89%)
Библиотека кодирования : XviD 73

Аудио
Идентификатор : 1
Формат : AC-3
Формат/Информация : Audio Coding 3
Расширение режима : CM (complete main)
Параметр Endianness формата : Big
Идентификатор кодека : 2000
Продолжительность : 44 м. 56 с.
Вид битрейта : Постоянный
Битрейт : 192 Кбит/сек
Каналы : 2 канала
Расположение каналов : Front: L R
Частота : 48,0 КГц
Частота кадров : 31,250 кадров/сек (1536 spf)
Метод сжатия : С потерями
Размер потока : 61,7 Мбайт (10%)
Выравнивание : Разделение по промежуткам
Продолжительность промежутка : 42 мс. (1,00 видеокадр)
Время предзагрузки промежутка : 500 мс.

pb.wtf



Скачать Дорога из жёлтого кирпича через торрент http://i102.fastpic.ru/big/2018/0310/b3/cb4d70a5b425768868043d6bfbd94db3.jpg Скачать фильм Дорога из жёлтого кирпича через торрент бесплантно в хорошем качестве Описание: Девушка Варя случайно встречает свою детскую любовь — Ивана Петровича Соболя. От своей школьной подруги она узнает, что тот ... 10 10 2
Торрент: Зарегистрирован [2018-03-11 13:04] · скачан: 79 раз
Статус: √ проверено
Размер: 2.36 GB
Как cкачать? Как скачать Дорога из жёлтого кирпича через торрент | qTorrent

% Раздел Тема Автор DL S | L
Наши сериалы [ 2.26 GB ] Дорога из жёлтого кирпича / Серии 1-4 из 4 [2017 Мело WEB-DLRip-AVC] bober100 Скачать
1 | 0
Наши сериалы [ 4.58 GB ] Дорога из жёлтого кирпича / Серии 1-4 из 4 [2017 Мело WEB-DL 1080p] bober100 Скачать
1 | 0
Наши сериалы [ 2.09 GB ] Дорога из жёлтого кирпича / Серии: 1-4 из 4 [2017 SATRip-AVC] aleksan55 Скачать
1 | 0
Наши сериалы [ 2.4 GB ] Дорога из желтого кирпича / Серия 1-4 из 4 / [2018 Мело SATRip] oleg8 Скачать
1 | 0

28-11-2019 20:33  

Отключить всю рекламу на сайте

    Дорогой пользователь! Огромная просьба, поблагодарите релизера, оцените раздачу и оставьте свои комментарий, если Вы скачали Дорога из жёлтого кирпича через торрент бесплатно! Внесите свою лепту в развитие PiratBit!
    Комментировать посты могут только пользователи прошедшие не сложную регистрацию
    Показать сообщения:    

    Дорога из жёлтого кирпича через торрент
    Скачать бесплатно Дорога из жёлтого кирпича
    Дорога из жёлтого кирпича скачать торрент
    Дорога из жёлтого кирпича смотреть онлайн
    Cкачать фильм Дорога из жёлтого кирпича бесплатно
    Дорога из жёлтого кирпича скачать торрент в хорошем качестве
    Дорога из жёлтого кирпича смотреть онлайн бесплатно в хорошем качестве


    Вы не можете начинать темы
    Вы не можете отвечать на сообщения
    Вы не можете редактировать свои сообщения
    Вы не можете удалять свои сообщения
    Вы не можете голосовать в опросах
    Вы не можете прикреплять файлы к сообщениям
    Вы можете скачивать файлы