Ссылка на приватное зеркало всего за 1$. Внимание количество ограничено!!!

OK

1+1

iTunes

мы

OK

1

WEB-DLRip

Джокер

Пифагор

Ведьмак / The Witcher сериал

Лицензия

ПШазам

ОК

Оно 2

iTunes

30
pack

Вам бонус

ВАЖНО

!!Акция!!

Alien_RageХит недели

RePack

Resident Evil 21

ИГРА 18+

pack

RePack

jed

!!Акция!!

Alien_Rage

RePack

fifa19

RePack

Assassins Creed: Odyssey

RePack

NEED FOR SPEED™ PAYBACK

4 сезон

9 сезон

Бесстыжие 9 сезон

Все сериалы

все сериалы на PB.wtf

RePack

FAR CRY 5
  

Византия / Byzantium (Нил Джордан / Neil Jordan) [2012, ужасы, фэнтези, триллер, BDRip-AVC] Dub [Лицензия] pb.wtf

Византия через торрент pb.wtf

Раздают: 1 [ 0 KB/s ]
Размер: 1.45 GB | Добавлен: 1 год 10 мес. назад | Торрент скачан:54 раза
Скачать  

11-03-2018 13:59 Византия Скачать торрент  

Византия
Byzantium

«Нет связи крепче, чем узы крови»


Страна: Великобритания, США, Ирландия
Жанр: ужасы, фэнтези, триллер, драма

Год выпуска: 2012
Продолжительность: 01:58:06

Перевод: Профессиональный (полное дублирование) [DVD R5]
Субтитры: русские (полные)
Оригинальная аудиодорожка: нет

Режиссер: Нил Джордан / Neil Jordan

В ролях: Сирша Ронан, Джемма Артертон, Сэм Райли, Калеб Лэндри Джонс, Дэниэл Мейс, Джонни Ли Миллер, Туре Линдхардт, Ури Гавриел, Мария Дойл Кеннеди, Кэролайн Джонс, Бэрри Кессин, Дэвид Хип

Описание:
История партнёрства вампиров - матери и дочери, которые выдают себя за сестёр.



Релиз:

Автор рипа: stalkerok | Моя группа

Сэмпл

Качество видео: BDRip-AVC [BDRemux 1080p @ arxivariys [Byzantium 2012 1080p GER Blu-ray AVC DTS-HD MA 5.1]]
Формат видео: MKV
Видео кодек: AVC
Аудио кодек: AC3
Видео: AVC, 1311 Кбит/сек, 960x408 (2.35:1), 24 кадр/сек
Аудио: AC3, 448 Кбит/сек, 48 КГц, 5.1 - русский
Навигация по главам: есть

---[Information] [03.03.2018 17:55:03] x264 [info]: frame I:1113 Avg QP:16.55 size: 45610
---[Information] [03.03.2018 17:55:03] x264 [info]: frame P:33792 Avg QP:18.40 size: 15106
---[Information] [03.03.2018 17:55:03] x264 [info]: frame B:135179 Avg QP:20.65 size: 4440

General
Unique ID : 212959767440912985642810092329333791470 (0xA0368F2EB49CB8EABC24DF55E39D9AEE)
Complete name : V:\!Rips\Byzantium (2012)\Byzantium.2012.BDRip-AVC.RUS.stalkerok.new-team.mkv
Format : Matroska
Format version : Version 4 / Version 2
File size : 1.45 GiB
Duration : 1 h 58 min
Overall bit rate : 1 761 kb/s
Movie name : Byzantium (2012) (Rip by stalkerok)
Encoded date : UTC 2018-03-03 18:45:26
Writing application : mkvmerge v8.6.1 ('Flying') 64bit
Writing library : libebml v1.3.3 + libmatroska v1.4.4

Video
ID : 1
Format : AVC
Format/Info : Advanced Video Codec
Format profile : High@L4.1
Format settings, CABAC : Yes
Format settings, ReFrames : 13 frames
Codec ID : V_MPEG4/ISO/AVC
Duration : 1 h 58 min
Bit rate : 1 311 kb/s
Width : 960 pixels
Height : 408 pixels
Display aspect ratio : 2.35:1
Frame rate mode : Constant
Frame rate : 24.000 FPS
Color space : YUV
Chroma subsampling : 4:2:0
Bit depth : 8 bits
Scan type : Progressive
Bits/(Pixel*Frame) : 0.139
Stream size : 1.08 GiB (74%)
Title : Byzantium (2012) (Rip by stalkerok)
Writing library : x264 core 152 r2851 ba24899
Encoding settings : cabac=1 / ref=13 / deblock=1:-3:-2 / analyse=0x3:0x133 / me=umh / subme=11 / psy=1 / psy_rd=1.00:0.00 / mixed_ref=1 / me_range=32 / chroma_me=1 / trellis=2 / 8x8dct=1 / cqm=0 / deadzone=21,11 / fast_pskip=0 / chroma_qp_offset=-2 / threads=12 / lookahead_threads=3 / sliced_threads=0 / nr=0 / decimate=1 / interlaced=0 / bluray_compat=0 / constrained_intra=0 / bframes=15 / b_pyramid=2 / b_adapt=2 / b_bias=0 / direct=3 / weightb=1 / open_gop=0 / weightp=2 / keyint=240 / keyint_min=23 / scenecut=40 / intra_refresh=0 / rc_lookahead=60 / rc=crf / mbtree=0 / crf=19.4 / qcomp=0.65 / qpmin=0 / qpmax=69 / qpstep=4 / vbv_maxrate=50000 / vbv_bufsize=62500 / crf_max=0.0 / nal_hrd=none / filler=0 / ip_ratio=1.40 / pb_ratio=1.30 / aq=3:0.85 / zones=163484,170083,q=34
Default : Yes
Forced : No

Audio
ID : 2
Format : AC-3
Format/Info : Audio Coding 3
Mode extension : CM (complete main)
Format settings, Endianness : Big
Codec ID : A_AC3
Duration : 1 h 58 min
Bit rate mode : Constant
Bit rate : 448 kb/s
Channel(s) : 6 channels
Channel positions : Front: L C R, Side: L R, LFE
Sampling rate : 48.0 kHz
Frame rate : 31.250 FPS (1536 spf)
Compression mode : Lossy
Stream size : 378 MiB (25%)
Title : Dub, R5
Language : Russian
Default : Yes
Forced : No

Text
ID : 3
Format : UTF-8
Codec ID : S_TEXT/UTF8
Codec ID/Info : UTF-8 Plain Text
Duration : 1 h 52 min
Bit rate : 72 b/s
Count of elements : 1432
Stream size : 59.7 KiB (0%)
Language : Russian
Default : No
Forced : No

Menu
00:00:00.000 : :Chapter 01
00:10:42.583 : :Chapter 02
00:20:25.041 : :Chapter 03
00:30:16.291 : :Chapter 04
00:42:57.083 : :Chapter 05
00:52:39.916 : :Chapter 06
01:03:54.500 : :Chapter 07
01:12:44.208 : :Chapter 08
01:26:16.000 : :Chapter 09
01:35:44.583 : :Chapter 10
01:44:48.291 : :Chapter 11
01:53:34.416 : :Chapter 12
скриншот   скриншот   скриншот   скриншот   скриншот   скриншот   скриншот  
pb.wtf



Скачать Византия через торрент http://i6.imageban.ru/out/2017/09/18/2ff75c0c358795c5946784cc1680714d.png Скачать фильм Византия через торрент бесплантно в хорошем качестве Описание:История партнёрства вампиров - матери и дочери, которые выдают себя за сестёр. Релиз: Автор рипа: stalkerok | Моя группа ... 10 10 3
Info! Золотая раздача, скачанное не засчитывается.
Торрент: Зарегистрирован [2018-03-11 13:59] · скачан: 54 раз
Статус: √ проверено
Размер: 1.45 GB
Как cкачать? Как скачать Византия через торрент | qTorrent

% Раздел Тема Автор DL S | L
BBC [ 3.67 GB ] BBC: Византия - сказания о трёх городах / Byzantium: A Tale of Three Cities / Серии: 1-3 из 3 [2013 Документальный познавательный история HDTVRip 720p] DUB [SDI Media] bober100 Скачать
2 | 0
Фильмы 2012 [ 746 MB ] Византия / Byzantium [2012 BDRip-AVC] sokol_ok Скачать
3 | 0
Фильмы 2012 [ 3.01 GB ] Византия / Byzantium [2012 BDRip-AVC] sokol_ok Скачать
2 | 0
Фильмы 2013 [DVDrip, WEB-DLRip, HDrip] [ 1.46 GB ] Византия / Byzantium [2012 Ирландия WEB-DLRip [лицензия] Ворон Скачать
1 | 0
Фильмы 2012 [ 2.19 GB ] Византия / Byzantium [2012 Ирландия HDRip [лицензия] Ворон Скачать
1 | 0
Фильмы 2012 [ 1.46 GB ] Византия / Byzantium [2012 Ирландия WEB-DLRip] MVO Ворон Скачать
1 | 0
Фильмы 2012 [ 2.06 GB ] Византия / Byzantium [2012 WEB-DLRip VO] PsYcho Скачать
1 | 0

28-11-2019 20:33  

Отключить всю рекламу на сайте

11-03-2018 14:00 Византия Скачать торрент  

    Дорогой пользователь! Огромная просьба, поблагодарите релизера, оцените раздачу и оставьте свои комментарий, если Вы скачали Византия через торрент бесплатно! Внесите свою лепту в развитие PiratBit!
    Комментировать посты могут только пользователи прошедшие не сложную регистрацию
    Показать сообщения:    

    Византия через торрент
    Скачать бесплатно Византия
    Византия скачать торрент
    Византия смотреть онлайн
    Cкачать фильм Византия бесплатно
    Византия скачать торрент в хорошем качестве
    Византия смотреть онлайн бесплатно в хорошем качестве


    Вы не можете начинать темы
    Вы не можете отвечать на сообщения
    Вы не можете редактировать свои сообщения
    Вы не можете удалять свои сообщения
    Вы не можете голосовать в опросах
    Вы не можете прикреплять файлы к сообщениям
    Вы можете скачивать файлы