Доктор Стрэндж

Лицензия

Добыча

Дубляж

Дом дракона

1 сезон

Тор

Дубляж

В эфире

Дубляж

Там, где раки поют

MVO

Властелин колец

1 сезон

Ultimate

pack

Рекомендуем

30

Пиратка

ВАЖНО

ВАЖНО

Ghostwire

Пиратка

jed

RePack

nioh2

RePack

RDR2

RePack

NEED FOR SPEED™ PAYBACK

RePack

скачать торрент

Кинопоиск HD

Острые козырьки 6 сезон

6 сезон

FAR CRY 6

RePack

скачать торрент

Лицензия

скачать торрент

MVO

1

1 сезон

скачать торрент

1 сезон

скачать торрент

Лицензия

  

Византия / Byzantium (Нил Джордан / Neil Jordan) [2012, ужасы, фэнтези, триллер, BDRip-AVC] Дубляж [Лицензия]

Византия через торрент pb.wtf

Раздают: 1 [ 0 KB/s ]
Размер: 3.01 GB | Добавлен: 4 года 8 мес. назад | Торрент скачан:64 раза
Смотреть онлайн | Скачать   

11-03-2018 14:28 Византия Скачать торрент  

Византия
Byzantium

«Нет связи крепче, чем узы крови»


Страна: Великобритания, США, Ирландия
Жанр: ужасы, фэнтези, триллер, драма

Год выпуска: 2012
Продолжительность: 01:58:06

Перевод:
#1 Профессиональный (полное дублирование) [DVD R5]
#2 Авторский (одноголосый, закадровый) [Василий Горчаков]
Субтитры: русские (полные), английские (полные, SDH)
Оригинальная аудиодорожка: английский

Режиссер: Нил Джордан / Neil Jordan

В ролях: Сирша Ронан, Джемма Артертон, Сэм Райли, Калеб Лэндри Джонс, Дэниэл Мейс, Джонни Ли Миллер, Туре Линдхардт, Ури Гавриел, Мария Дойл Кеннеди, Кэролайн Джонс, Бэрри Кессин, Дэвид Хип

Описание:
История партнёрства вампиров - матери и дочери, которые выдают себя за сестёр.



Релиз:

Автор рипа: stalkerok | Моя группа

Сэмпл

Качество видео: BDRip-AVC [BDRemux 1080p @ arxivariys [Byzantium 2012 1080p GER Blu-ray AVC DTS-HD MA 5.1]]
Формат видео: MKV
Видео кодек: AVC
Аудио кодек: AC3
Видео: AVC, 2298 Кбит/сек, 1152x490 (2.35:1), 24 кадр/сек
Аудио #1: AC3, 448 Кбит/сек, 48 КГц, 5.1 - русский | Дубляж
Аудио #2: AC3, 448 Кбит/сек, 48 КГц, 5.1 - русский | В. Горчаков
Аудио #3: AC3, 448 Кбит/сек, 48 КГц, 5.1 - английский
Навигация по главам: есть

---[Information] [04.03.2018 1:55:38] x264 [info]: frame I:1092 Avg QP:16.23 size: 70335
---[Information] [04.03.2018 1:55:38] x264 [info]: frame P:34263 Avg QP:18.27 size: 24392
---[Information] [04.03.2018 1:55:38] x264 [info]: frame B:134729 Avg QP:20.14 size: 8338

Общее
Уникальный идентификатор : 240496336832864749840414613550856667653 (0xB4EDE8DF9EF855E0B4BC1802E4200205)
Полное имя : V:\!Rips\Byzantium (2012)\Byzantium.2012.BDRip-AVC.RUS.ENG.stalkerok.new-team.mkv
Формат : Matroska
Версия формата : Version 4 / Version 2
Размер файла : 3,01 Гбайт
Продолжительность : 1 ч. 58 м.
Общий поток : 3645 Кбит/сек
Название фильма : Byzantium (2012) (Rip by stalkerok)
Дата кодирования : UTC 2018-03-04 10:34:18
Программа кодирования : mkvmerge v8.6.1 ('Flying') 64bit
Библиотека кодирования : libebml v1.3.3 + libmatroska v1.4.4

Видео
Идентификатор : 3
Формат : AVC
Формат/Информация : Advanced Video Codec
Профиль формата : [email protected]
Параметр CABAC формата : Да
Параметр ReFrames формата : 12 кадров
Идентификатор кодека : V_MPEG4/ISO/AVC
Продолжительность : 1 ч. 58 м.
Битрейт : 2298 Кбит/сек
Ширина : 1152 пикселя
Высота : 490 пикселей
Соотношение сторон : 2,35:1
Режим частоты кадров : Постоянный
Частота кадров : 24,000 кадра/сек
Цветовое пространство : YUV
Субдискретизация насыщенности : 4:2:0
Битовая глубина : 8 бит
Тип развёртки : Прогрессивная
Бит/(Пиксели*Кадры) : 0.170
Размер потока : 1,90 Гбайт (63%)
Заголовок : Byzantium (2012) (Rip by stalkerok)
Библиотека кодирования : x264 core 152 r2851kMod ba24899
Настройки программы : cabac=1 / ref=12 / deblock=1:-3:-2 / analyse=0x3:0x133 / me=umh / subme=11 / psy=1 / fade_compensate=0.00 / psy_rd=1.00:0.00 / mixed_ref=1 / me_range=32 / chroma_me=1 / trellis=2 / 8x8dct=1 / cqm=0 / deadzone=21,11 / fast_pskip=0 / chroma_qp_offset=-2 / threads=12 / lookahead_threads=3 / sliced_threads=0 / nr=0 / decimate=1 / interlaced=0 / bluray_compat=0 / constrained_intra=0 / bframes=14 / b_pyramid=2 / b_adapt=2 / b_bias=0 / direct=3 / weightb=1 / open_gop=0 / weightp=2 / keyint=240 / keyint_min=23 / scenecut=40 / intra_refresh=0 / rc_lookahead=60 / rc=crf / mbtree=0 / crf=19.1000 / qcomp=0.65 / qpmin=0 / qpmax=69 / qpstep=4 / vbv_maxrate=50000 / vbv_bufsize=62500 / crf_max=0.0 / nal_hrd=none / filler=0 / ip_ratio=1.40 / pb_ratio=1.30 / aq=3:0.80 / zones=163484,170083,q=30
Default : Да
Forced : Нет

Аудио #1
Идентификатор : 1
Формат : AC-3
Формат/Информация : Audio Coding 3
Расширение режима : CM (complete main)
Параметр Endianness формата : Big
Идентификатор кодека : A_AC3
Продолжительность : 1 ч. 58 м.
Вид битрейта : Постоянный
Битрейт : 448 Кбит/сек
Каналы : 6 каналов
Расположение каналов : Front: L C R, Side: L R, LFE
Частота : 48,0 КГц
Частота кадров : 31,250 кадров/сек (1536 spf)
Метод сжатия : С потерями
Размер потока : 378 Мбайт (12%)
Заголовок : Дубляж, R5
Язык : Russian
Default : Да
Forced : Нет

Аудио #2
Идентификатор : 4
Формат : AC-3
Формат/Информация : Audio Coding 3
Расширение режима : CM (complete main)
Параметр Endianness формата : Big
Идентификатор кодека : A_AC3
Продолжительность : 1 ч. 58 м.
Вид битрейта : Постоянный
Битрейт : 448 Кбит/сек
Каналы : 6 каналов
Расположение каналов : Front: L C R, Side: L R, LFE
Частота : 48,0 КГц
Частота кадров : 31,250 кадров/сек (1536 spf)
Метод сжатия : С потерями
Размер потока : 378 Мбайт (12%)
Заголовок : AVO Василий Горчаков
Язык : Russian
Default : Нет
Forced : Нет

Аудио #3
Идентификатор : 5
Формат : AC-3
Формат/Информация : Audio Coding 3
Расширение режима : CM (complete main)
Параметр Endianness формата : Big
Идентификатор кодека : A_AC3
Продолжительность : 1 ч. 58 м.
Вид битрейта : Постоянный
Битрейт : 448 Кбит/сек
Каналы : 6 каналов
Расположение каналов : Front: L C R, Side: L R, LFE
Частота : 48,0 КГц
Частота кадров : 31,250 кадров/сек (1536 spf)
Метод сжатия : С потерями
Размер потока : 378 Мбайт (12%)
Язык : English
Default : Нет
Forced : Нет

Текст #1
Идентификатор : 2
Формат : UTF-8
Идентификатор кодека : S_TEXT/UTF8
Идентификатор кодека/Информация : UTF-8 Plain Text
Продолжительность : 1 ч. 52 м.
Битрейт : 72 бит/сек
Count of elements : 1432
Размер потока : 59,7 Кбайт (0%)
Язык : Russian
Default : Нет
Forced : Нет

Текст #2
Идентификатор : 6
Формат : UTF-8
Идентификатор кодека : S_TEXT/UTF8
Идентификатор кодека/Информация : UTF-8 Plain Text
Продолжительность : 1 ч. 54 м.
Битрейт : 38 бит/сек
Count of elements : 1204
Размер потока : 32,6 Кбайт (0%)
Язык : English
Default : Нет
Forced : Нет

Текст #3
Идентификатор : 7
Формат : UTF-8
Идентификатор кодека : S_TEXT/UTF8
Идентификатор кодека/Информация : UTF-8 Plain Text
Продолжительность : 1 ч. 53 м.
Битрейт : 43 бит/сек
Count of elements : 1336
Размер потока : 36,2 Кбайт (0%)
Заголовок : SDH
Язык : English
Default : Нет
Forced : Нет

Меню
00:00:00.000 : :Chapter 01
00:10:42.583 : :Chapter 02
00:20:25.041 : :Chapter 03
00:30:16.291 : :Chapter 04
00:42:57.083 : :Chapter 05
00:52:39.916 : :Chapter 06
01:03:54.500 : :Chapter 07
01:12:44.208 : :Chapter 08
01:26:16.000 : :Chapter 09
01:35:44.583 : :Chapter 10
01:44:48.291 : :Chapter 11
01:53:34.416 : :Chapter 12
скриншот   скриншот   скриншот   скриншот   скриншот   скриншот   скриншот  



Скачать Византия через торрент http://i6-imageban-ru.translate.goog/out/2017/09/18/2ff75c0c358795c5946784cc1680714d.png Скачать, смотреть онлайн Византия бесплантно в хорошем качестве Описание:История партнёрства вампиров - матери и дочери, которые выдают себя за сестёр. Релиз: Автор рипа: stalkerok | Моя группа ... 10 10 1
Info! Золотая раздача, скачанное не засчитывается.
Торрент: Зарегистрирован [2018-03-11 14:28] · скачан: 64 раз
Статус: √ проверено
Размер: 3.01 GB
Как cкачать? Как скачать Византия через торрент | UTorrent

% Раздел Тема Автор DL S | L
Фильмы 2012 [ 746 MB ] Византия / Byzantium | Лицензия | BDRip-AVC sokol_ok Скачать
2 | 0
Фильмы 2012 [ 1.45 GB ] Византия / Byzantium | Лицензия | BDRip-AVC sokol_ok Скачать
2 | 0
Фильмы 2013 [DVDrip, WEB-DLRip, HDrip] [ 1.46 GB ] Византия / Byzantium | Дубляж | DLRip, Дубляж [лицензия Ворон Скачать
1 | 0
Фильмы 2012 [ 2.19 GB ] Византия / Byzantium | Дубляж | HDRip, Дубляж [лицензия Ворон Скачать
1 | 0
Фильмы 2012 [ 1.46 GB ] Византия / Byzantium | MVO | DLRip Ворон Скачать
1 | 0
Фильмы 2013 (Звук TS, Cam, VO, DVO) [ 1.46 GB ] Византия / Byzantium | | DLRip, VO Ворон Скачать
1 | 0

28-11-2019 20:33  


Отключить вcю реклaмy на сайте, в т.ч. и в плеере онлайн просмотра!

    Дорогой пользователь! Огромная просьба, поблагодарите релизера, оцените раздачу и оставьте свои комментарий, если Вы скачали Византия через торрент бесплатно!!
    Комментировать посты могут только пользователи прошедшие не сложную регистрацию
    Показать сообщения:    


    Византия через торрент
    Скачать бесплатно Византия
    Византия скачать торрент
    Византия смотреть онлайн
    Cкачать фильм Византия бесплатно
    Византия скачать торрент в хорошем качестве
    Византия смотреть онлайн бесплатно в хорошем качестве
    Вы не можете начинать темы
    Вы не можете отвечать на сообщения
    Вы не можете редактировать свои сообщения
    Вы не можете удалять свои сообщения
    Вы не можете голосовать в опросах
    Вы не можете прикреплять файлы к сообщениям
    Вы можете скачивать файлы
    Византия / Byzantium [2012, ужасы, фэнтези, триллер, BDRip-AVC] Дубляж [Лицензия] смотреть онлайн, скачать торрент picoco.icu