Доктор Стрэндж

Лицензия

Добыча

Дубляж

Уэнсдэй

1 сезон

Тор

Дубляж

В эфире

Дубляж

Там, где раки поют

MVO

Властелин колец

1 сезон

Deluxe

pack

Рекомендуем

30

Пиратка

ВАЖНО

ВАЖНО

Ghostwire

Пиратка

jed

RePack

nioh2

RePack

RDR2

RePack

NEED FOR SPEED™ PAYBACK

RePack

скачать торрент

Кинопоиск HD

Острые козырьки 6 сезон

6 сезон

FAR CRY 6

RePack

скачать торрент

Лицензия

скачать торрент

MVO

1

1 сезон

скачать торрент

1 сезон

скачать торрент

Лицензия

  

Византия / Byzantium (Нил Джордан / Neil Jordan) [2012, ужасы, фэнтези, триллер, BDRip-AVC] Дубляж [Лицензия]

Византия через торрент pb.wtf

Раздают: 1 [ 0 KB/s ]
Размер: 746 MB | Добавлен: 4 года 8 мес. назад | Торрент скачан:66 раз
Смотреть онлайн | Скачать   

11-03-2018 16:21 Византия Скачать торрент  

Византия
Byzantium

«Нет связи крепче, чем узы крови»


Страна: Великобритания, США, Ирландия
Жанр: ужасы, фэнтези, триллер, драма

Год выпуска: 2012
Продолжительность: 01:58:06

Перевод: Профессиональный (полное дублирование) [DVD R5]
Субтитры: русские (полные)
Оригинальная аудиодорожка: нет

Режиссер: Нил Джордан / Neil Jordan

В ролях: Сирша Ронан, Джемма Артертон, Сэм Райли, Калеб Лэндри Джонс, Дэниэл Мейс, Джонни Ли Миллер, Туре Линдхардт, Ури Гавриел, Мария Дойл Кеннеди, Кэролайн Джонс, Бэрри Кессин, Дэвид Хип

Описание:
История партнёрства вампиров - матери и дочери, которые выдают себя за сестёр.



Релиз:

Автор рипа: stalkerok | Моя группа

Сэмпл

Качество видео: BDRip-AVC [BDRemux 1080p @ arxivariys [Byzantium 2012 1080p GER Blu-ray AVC DTS-HD MA 5.1]]
Формат видео: MKV
Видео кодек: AVC
Аудио кодек: AAC
Видео: AVC, 817 Кбит/сек, 800x340 (2.35:1), 24 кадр/сек
Аудио: AAC, 64 Кбит/сек, 48 КГц, 2.0 - русский
Навигация по главам: есть

---[Information] [04.03.2018 17:10:25] x264 [info]: frame I:1129 Avg QP:15.71 size: 35669
---[Information] [04.03.2018 17:10:25] x264 [info]: frame P:33509 Avg QP:19.66 size: 9746
---[Information] [04.03.2018 17:10:25] x264 [info]: frame B:135446 Avg QP:20.94 size: 2634

Общее
Уникальный идентификатор : 225550773297774063361010535320868587687 (0xA9AF7FB326D5D3E38EBFFAD78D5B88A7)
Полное имя : V:\!Rips\Byzantium (2012)\Byzantium.2012.BDRip-AVC.RUS..stalkerok.new-team.mkv
Формат : Matroska
Версия формата : Version 4 / Version 2
Размер файла : 746 Мбайт
Продолжительность : 1 ч. 58 м.
Общий поток : 883 Кбит/сек
Название фильма : Byzantium (2012) (Rip by stalkerok)
Дата кодирования : UTC 2018-03-11 13:10:17
Программа кодирования : mkvmerge v8.6.1 ('Flying') 64bit
Библиотека кодирования : libebml v1.3.3 + libmatroska v1.4.4

Видео
Идентификатор : 2
Формат : AVC
Формат/Информация : Advanced Video Codec
Профиль формата : [email protected]
Параметр CABAC формата : Да
Параметр ReFrames формата : 16 кадров
Идентификатор кодека : V_MPEG4/ISO/AVC
Продолжительность : 1 ч. 58 м.
Битрейт : 817 Кбит/сек
Ширина : 800 пикселей
Высота : 340 пикселей
Соотношение сторон : 2,35:1
Режим частоты кадров : Постоянный
Частота кадров : 24,000 кадра/сек
Цветовое пространство : YUV
Субдискретизация насыщенности : 4:2:0
Битовая глубина : 8 бит
Тип развёртки : Прогрессивная
Бит/(Пиксели*Кадры) : 0.125
Размер потока : 690 Мбайт (93%)
Заголовок : Byzantium (2012) (Rip by stalkerok)
Библиотека кодирования : x264 core 152 r2851kMod ba24899
Настройки программы : cabac=1 / ref=16 / deblock=1:-3:-2 / analyse=0x3:0x133 / me=umh / subme=11 / psy=1 / fade_compensate=0.00 / psy_rd=1.00:0.00 / mixed_ref=1 / me_range=32 / chroma_me=1 / trellis=2 / 8x8dct=1 / cqm=0 / deadzone=21,11 / fast_pskip=0 / chroma_qp_offset=-2 / threads=11 / lookahead_threads=2 / sliced_threads=0 / nr=0 / decimate=0 / interlaced=0 / bluray_compat=0 / constrained_intra=0 / bframes=16 / b_pyramid=2 / b_adapt=2 / b_bias=0 / direct=3 / weightb=1 / open_gop=0 / weightp=2 / keyint=240 / keyint_min=23 / scenecut=40 / intra_refresh=0 / rc_lookahead=60 / rc=2pass / mbtree=0 / bitrate=817 / ratetol=1.0 / qcomp=0.65 / qpmin=0 / qpmax=69 / qpstep=4 / cplxblur=20.0 / qblur=0.5 / vbv_maxrate=50000 / vbv_bufsize=62500 / nal_hrd=none / filler=0 / ip_ratio=1.40 / pb_ratio=1.30 / aq=3:0.97 / zones=163484,170083,q=36
Default : Да
Forced : Нет

Аудио
Идентификатор : 3
Формат : AAC
Формат/Информация : Advanced Audio Codec
Профиль формата : HE-AAC / LC
Идентификатор кодека : A_AAC
Продолжительность : 1 ч. 58 м.
Битрейт : 64,0 Кбит/сек
Каналы : 2 канала
Расположение каналов : Front: L R
Частота : 48,0 КГц / 24,0 КГц
Частота кадров : 23,438 кадра/сек (1024 spf)
Метод сжатия : С потерями
Задержка видео : 31 мс.
Размер потока : 54,1 Мбайт (7%)
Язык : Russian
Default : Да
Forced : Нет

Текст
Идентификатор : 1
Формат : UTF-8
Идентификатор кодека : S_TEXT/UTF8
Идентификатор кодека/Информация : UTF-8 Plain Text
Продолжительность : 1 ч. 52 м.
Битрейт : 72 бит/сек
Count of elements : 1432
Размер потока : 59,7 Кбайт (0%)
Язык : Russian
Default : Нет
Forced : Нет

Меню
00:00:00.000 : :Chapter 01
00:10:42.583 : :Chapter 02
00:20:25.041 : :Chapter 03
00:30:16.291 : :Chapter 04
00:42:57.083 : :Chapter 05
00:52:39.916 : :Chapter 06
01:03:54.500 : :Chapter 07
01:12:44.208 : :Chapter 08
01:26:16.000 : :Chapter 09
01:35:44.583 : :Chapter 10
01:44:48.291 : :Chapter 11
01:53:34.416 : :Chapter 12
скриншот   скриншот   скриншот   скриншот   скриншот   скриншот   скриншот  



Скачать Византия через торрент http://i6-imageban-ru.translate.goog/out/2017/09/18/2ff75c0c358795c5946784cc1680714d.png Скачать, смотреть онлайн Византия бесплантно в хорошем качестве Описание:История партнёрства вампиров - матери и дочери, которые выдают себя за сестёр. Релиз: Автор рипа: stalkerok | Моя группа ... 5 10 1
Info! Золотая раздача, скачанное не засчитывается.
Торрент: Зарегистрирован [2018-03-11 16:21] · скачан: 66 раз
Статус: √ проверено
Размер: 746 MB
Как cкачать? Как скачать Византия через торрент | UTorrent

% Раздел Тема Автор DL S | L
Фильмы 2012 [ 3.01 GB ] Византия / Byzantium | Лицензия | BDRip-AVC sokol_ok Скачать
2 | 0
Фильмы 2012 [ 1.45 GB ] Византия / Byzantium | Лицензия | BDRip-AVC sokol_ok Скачать
2 | 0
Фильмы 2013 [DVDrip, WEB-DLRip, HDrip] [ 1.46 GB ] Византия / Byzantium | Дубляж | DLRip, Дубляж [лицензия Ворон Скачать
1 | 0
Фильмы 2012 [ 2.19 GB ] Византия / Byzantium | Дубляж | HDRip, Дубляж [лицензия Ворон Скачать
1 | 0
Фильмы 2012 [ 1.46 GB ] Византия / Byzantium | MVO | DLRip Ворон Скачать
1 | 0
Фильмы 2013 (Звук TS, Cam, VO, DVO) [ 1.46 GB ] Византия / Byzantium | | DLRip, VO Ворон Скачать
1 | 0

28-11-2019 20:33  


Отключить вcю реклaмy на сайте, в т.ч. и в плеере онлайн просмотра!

    Дорогой пользователь! Огромная просьба, поблагодарите релизера, оцените раздачу и оставьте свои комментарий, если Вы скачали Византия через торрент бесплатно!!
    Комментировать посты могут только пользователи прошедшие не сложную регистрацию
    Показать сообщения:    


    Византия через торрент
    Скачать бесплатно Византия
    Византия скачать торрент
    Византия смотреть онлайн
    Cкачать фильм Византия бесплатно
    Византия скачать торрент в хорошем качестве
    Византия смотреть онлайн бесплатно в хорошем качестве
    Вы не можете начинать темы
    Вы не можете отвечать на сообщения
    Вы не можете редактировать свои сообщения
    Вы не можете удалять свои сообщения
    Вы не можете голосовать в опросах
    Вы не можете прикреплять файлы к сообщениям
    Вы можете скачивать файлы
    Византия / Byzantium [2012, ужасы, фэнтези, триллер, BDRip-AVC] Дубляж [Лицензия] смотреть онлайн, скачать торрент picoco.icu