Ссылка на приватное зеркало нашего сайта всего за 1$. Внимание количество ограничено!!!

2 сезон

iTunes

1 сезон

1

2 сезон

2 сезон

iTunes

1 сезон

RePack

30

Ultimate

ВАЖНО

ИГРА 18+

pack

RePack

MK11
pack

Забери бонус

RePack

jed

!!Акция!!

Alien_Rage

RePack

fifa19

RePack

Assassins Creed: Odyssey

RePack

NEED FOR SPEED™ PAYBACK

4 сезон

9 сезон

Бесстыжие 9 сезон

Все сериалы

все сериалы на PB.wtf

RePack

FAR CRY 5
  

Звездные врата: Начало / Stargate Origins / Сезон: 1 / Серии: 1-10 из 10 (Мерседес Морган) [2018, фантастика, фэнтези, боевик, приключения, WEB-DLRip] MVO [AlexFilm] pb.wtf

Звездные врата: Начало через торрент pb.wtf

Размер: 1.4 GB | Добавлен: 2 года 8 мес. назад | Торрент скачан:46 раз
Скачать  

11-03-2018 17:44 Звездные врата: Начало Скачать торрент  

Звездные врата: Начало / Stargate OriginsИнформация о фильме:

Название: Звездные врата: Начало
Оригинальное название: Stargate Origins
Год выпуска: 2018 (1 сезон)
Страна: США / Metro-Goldwyn-Mayer Studios, New Form
Жанр: фантастика, фэнтези, боевик, приключения
Продолжительность: ~ 00:10:00
Перевод: Профессиональный (многоголосный) -
Субтитры: отсутствуют

Режиссер: Мерседес Морган

rating

В ролях:

Коннор Триннир, Шван Аладдин, Салом Азизи, Мишель Джубили Гонсалес, Линкольн Хопп

Описание:

Главной действующей героиней приквела станет молодая Кэтрин Лэнгфорд, дочь профессора археологии Пола Лэнгфорда, которая в детстве помогла найти Звездные врата и в течение нескольких десятилетий пыталась выяснить, как заставить их работать. Кэтрин предстоит совершить неожиданное путешествие в целях разгадки тайны, лежащей за Звездными вратами, и спасения мира от невообразимого мрака.

Информация о файле:

Качество: WEB-DLRip
Формат: AVI

Видео: XVID 1400 kb/s,720x368
Аудио#1: Russian: MP3, 128 kb/s (2 ch)
Аудио#2: English: MP3, 128 kb/s (2 ch)


скриншот   скриншот   скриншот  

Общее
Полное имя : D:\Stargate Origins - Season 1 (AlexFilm) WEB-DLRip\Stargate.Origins.s01e01.WEB-DLRip.Rus.Eng.AlexFilm.avi
Формат : AVI
Формат/Информация : Audio Video Interleave
Размер файла : 128 Мбайт
Продолжительность : 10 м. 42 с.
Общий поток : 1669 Кбит/сек
Название фильма : Stargate Origins 1x01 @ AlexFilm
Программа кодирования : VirtualDubMod 1.5.10.2 (build 2540/release)
Библиотека кодирования : VirtualDubMod build 2540/release

Видео
Идентификатор : 0
Формат : MPEG-4 Visual
Профиль формата : Advanced Simple@L5
Параметр BVOP формата : Нет
Параметр QPel формата : Нет
Параметр GMC формата : Без точки перехода
Параметр матрицы формата : Default (MPEG)
Идентификатор кодека : XVID
Идентификатор кодека/Подсказка : XviD
Продолжительность : 10 м. 42 с.
Битрейт : 1399 Кбит/сек
Ширина : 720 пикселей
Высота : 368 пикселей
Соотношение сторон : 1,957
Частота кадров : 23,976 (23976/1000) кадра/сек
Цветовое пространство : YUV
Субдискретизация насыщенности : 4:2:0
Битовая глубина : 8 бит
Тип развёртки : Прогрессивная
Метод сжатия : С потерями
Бит/(Пиксели*Кадры) : 0.220
Размер потока : 107 Мбайт (84%)
Библиотека кодирования : XviD 73

Аудио #1
Идентификатор : 1
Формат : MPEG Audio
Версия формата : Version 1
Профиль формата : Layer 3
Режим : Joint stereo
Расширение режима : MS Stereo
Идентификатор кодека : 55
Идентификатор кодека/Подсказка : MP3
Продолжительность : 10 м. 42 с.
Вид битрейта : Постоянный
Битрейт : 128 Кбит/сек
Каналы : 2 канала
Частота : 48,0 КГц
Метод сжатия : С потерями
Размер потока : 9,81 Мбайт (8%)
Выравнивание : Соединение по промежуткам
Продолжительность промежутка : 42 мс. (1,00 видеокадр)
Время предзагрузки промежутка : 504 мс.
Заголовок : Russian (AlexFilm)
Библиотека кодирования : LAME3.99r
Настройки программы : -m j -V 4 -q 3 -lowpass 18 -b 128

Аудио #2
Идентификатор : 2
Формат : MPEG Audio
Версия формата : Version 1
Профиль формата : Layer 3
Режим : Joint stereo
Расширение режима : MS Stereo
Идентификатор кодека : 55
Идентификатор кодека/Подсказка : MP3
Продолжительность : 10 м. 42 с.
Вид битрейта : Постоянный
Битрейт : 128 Кбит/сек
Каналы : 2 канала
Частота : 48,0 КГц
Метод сжатия : С потерями
Размер потока : 9,81 Мбайт (8%)
Выравнивание : Соединение по промежуткам
Продолжительность промежутка : 42 мс. (1,00 видеокадр)
Время предзагрузки промежутка : 504 мс.
Заголовок : English
Библиотека кодирования : LAME3.90.3

pb.wtf



Скачать Звездные врата: Начало через торрент http://img12.lostpic.net/2018/02/15/45ef2535cf65d35234a4347c37cca9fa.jpg Скачать фильм Звездные врата: Начало через торрент бесплантно в хорошем качестве Описание: Главной действующей героиней приквела станет молодая Кэтрин Лэнгфорд, дочь профессора археологии Пола Лэнгфорда, которая в ... 10 10 4
Торрент: Зарегистрирован [2018-03-11 17:44] · скачан: 46 раз
Статус: √ проверено
Размер: 1.4 GB
Как cкачать? Как скачать Звездные врата: Начало через торрент | qTorrent

% Раздел Тема Автор DL S | L
Зарубежные сериалы [ 3 GB ] Звездные врата: Начало / Stargate Origins / Сезон: 1 / Серии: 1-10 из 10 [2018 WEB-DL 720p] MVO [AlexFilm] bober100 Скачать
2 | 0
Зарубежные сериалы [ 1.53 GB ] Звездные Врата: Истоки / Звездные врата: Начало / Stargate Origins / Сезон: 1 / Серии 1-10 из 10 [2018 WEB-DL Rip] MVO [LostFilm] GEKADOL Скачать
1 | 0
Зарубежные сериалы [ 1.96 GB ] Звездные врата: Начало / Stargate Origins / Сезон 1 / Серии 1-7 из 10 [2018 WEBRip 720p] MVO [ColdFIlm] bober100 Скачать
1 | 0
Зарубежные сериалы [ 962 MB ] Звездные врата: Начало / Stargate Origins / Сезон 1 / Серии 1-3 из 10 [2018 WEBRip 1080p] MVO [ColdFIlm] bober100 Скачать
1 | 0
Зарубежные сериалы [ 804 MB ] Звездные врата: Начало / Stargate Origins / Сезон 1 / Серии 1-7 из 10 [2018 WEBRip] MVO [ColdFIlm] bober100 Скачать
1 | 0

28-11-2019 20:33  

Отключить всю рекламу на сайте

    Дорогой пользователь! Огромная просьба, поблагодарите релизера, оцените раздачу и оставьте свои комментарий, если Вы скачали Звездные врата: Начало через торрент бесплатно! Внесите свою лепту в развитие PiratBit!
    Комментировать посты могут только пользователи прошедшие не сложную регистрацию
    Показать сообщения:    

    Звездные врата: Начало через торрент
    Скачать бесплатно Звездные врата: Начало
    Звездные врата: Начало скачать торрент
    Звездные врата: Начало смотреть онлайн
    Cкачать фильм Звездные врата: Начало бесплатно
    Звездные врата: Начало скачать торрент в хорошем качестве
    Звездные врата: Начало смотреть онлайн бесплатно в хорошем качестве


    Вы не можете начинать темы
    Вы не можете отвечать на сообщения
    Вы не можете редактировать свои сообщения
    Вы не можете удалять свои сообщения
    Вы не можете голосовать в опросах
    Вы не можете прикреплять файлы к сообщениям
    Вы можете скачивать файлы