Ссылка на приватное зеркало нашего сайта всего за 1$. Внимание количество ограничено!!!

2 сезон

iTunes

1 сезон

1

2 сезон

2 сезон

iTunes

1 сезон

RePack

30

Ultimate

ВАЖНО

ИГРА 18+

pack

RePack

MK11
pack

Забери бонус

RePack

jed

!!Акция!!

Alien_Rage

RePack

fifa19

RePack

Assassins Creed: Odyssey

RePack

NEED FOR SPEED™ PAYBACK

4 сезон

9 сезон

Бесстыжие 9 сезон

Все сериалы

все сериалы на PB.wtf

RePack

FAR CRY 5
  

Звездные врата: Начало / Stargate Origins / Сезон: 1 / Серии: 1-10 из 10 (Мерседес Морган) [2018, фантастика, фэнтези, боевик, приключения, WEB-DL 720p] MVO [AlexFilm] pb.wtf

Звездные врата: Начало через торрент pb.wtf

Размер: 3 GB | Добавлен: 2 года 8 мес. назад | Торрент скачан:133 раза
Скачать  

11-03-2018 17:50 Звездные врата: Начало Скачать торрент  

Звездные врата: Начало / Stargate OriginsИнформация о фильме:

Название: Звездные врата: Начало
Оригинальное название: Stargate Origins
Год выпуска: 2018 (1 сезон)
Страна: США / Metro-Goldwyn-Mayer Studios, New Form
Жанр: фантастика, фэнтези, боевик, приключения
Продолжительность: ~ 01:45:00 (десять серий одним файлом)
Перевод: Профессиональный (многоголосный) -
Субтитры: Русские (форсированные, вшитые)
Примечание: Без рекламы!

Режиссер: Мерседес Морган

rating

В ролях:

Коннор Триннир, Шван Аладдин, Салом Азизи, Мишель Джубили Гонсалес, Линкольн Хопп

Описание:

Главной действующей героиней приквела станет молодая Кэтрин Лэнгфорд, дочь профессора археологии Пола Лэнгфорда, которая в детстве помогла найти Звездные врата и в течение нескольких десятилетий пыталась выяснить, как заставить их работать. Кэтрин предстоит совершить неожиданное путешествие в целях разгадки тайны, лежащей за Звездными вратами, и спасения мира от невообразимого мрака.

Информация о файле:

Качество: WEB-DL 720p
Формат: MKV

Видео: ~ 3600 kbps, 1280х640, 23.976 fps
Аудио#1 RUS: AC3, 48 KHz, 2 ch, 192 kbps
Аудио#2 ENG: AC3, 48 KHz, 2 ch, 192 kbps


скриншот  
скриншот   скриншот   скриншот   скриншот   скриншот   скриншот  

Общее
Уникальный идентификатор : 233854905993235539539185751408605114286 (0xAFEED10D50AF46C081238C3423DBAFAE)
Полное имя : D:\Звездные врата. Начало. 2018. AlexFilm & Atla22 (WEB-DL 720p).mkv
Формат : Matroska
Версия формата : Version 2
Размер файла : 3,00 Гбайт
Продолжительность : 1 ч. 45 м.
Общий поток : 4061 Кбит/сек
Название фильма : Stargate Origins
Дата кодирования : UTC 2018-03-11 09:26:33
Программа кодирования : mkvmerge v7.8.0 ('River Man') 32bit built on Apr 3 2015 12:11:22
Библиотека кодирования : libebml v1.3.1 + libmatroska v1.4.2

Видео
Идентификатор : 1
Формат : AVC
Формат/Информация : Advanced Video Codec
Профиль формата : Main@L3.1
Параметр CABAC формата : Да
Параметр RefFrames формата : 2 кадра
Идентификатор кодека : V_MPEG4/ISO/AVC
Продолжительность : 1 ч. 45 м.
Битрейт : 3596 Кбит/сек
Ширина : 1280 пикселей
Высота : 640 пикселей
Соотношение сторон : 2,000
Режим частоты кадров : Постоянный
Частота кадров : 23,976 (24000/1001) кадра/сек
Цветовое пространство : YUV
Субдискретизация насыщенности : 4:2:0
Битовая глубина : 8 бит
Тип развёртки : Прогрессивная
Бит/(Пиксели*Кадры) : 0.183
Размер потока : 2,65 Гбайт (89%)
Язык : English
Default : Да
Forced : Нет

Аудио #1
Идентификатор : 2
Формат : AC-3
Формат/Информация : Audio Coding 3
Расширение режима : CM (complete main)
Параметр Endianness формата : Big
Идентификатор кодека : A_AC3
Продолжительность : 1 ч. 45 м.
Вид битрейта : Постоянный
Битрейт : 192 Кбит/сек
Каналы : 2 канала
Расположение каналов : Front: L R
Частота : 48,0 КГц
Частота кадров : 31,250 кадров/сек (1536 spf)
Метод сжатия : С потерями
Размер потока : 145 Мбайт (5%)
Язык : Russian
Default : Да
Forced : Нет

Аудио #2
Идентификатор : 3
Формат : AC-3
Формат/Информация : Audio Coding 3
Расширение режима : CM (complete main)
Параметр Endianness формата : Big
Идентификатор кодека : A_AC3
Продолжительность : 1 ч. 45 м.
Вид битрейта : Постоянный
Битрейт : 192 Кбит/сек
Каналы : 2 канала
Расположение каналов : Front: L R
Частота : 48,0 КГц
Частота кадров : 31,250 кадров/сек (1536 spf)
Метод сжатия : С потерями
Размер потока : 145 Мбайт (5%)
Язык : English
Default : Нет
Forced : Нет

pb.wtf



Скачать Звездные врата: Начало через торрент http://img12.lostpic.net/2018/03/11/41c6ffed62e40439c0e1965526e5a1f4.jpg Скачать фильм Звездные врата: Начало через торрент бесплантно в хорошем качестве Описание: Главной действующей героиней приквела станет молодая Кэтрин Лэнгфорд, дочь профессора археологии Пола Лэнгфорда, которая в ... 10 10 5
Торрент: Зарегистрирован [2018-03-11 17:50] · скачан: 133 раз
Статус: √ проверено
Размер: 3 GB
Как cкачать? Как скачать Звездные врата: Начало через торрент | qTorrent

% Раздел Тема Автор DL S | L
Зарубежные сериалы [ 1.4 GB ] Звездные врата: Начало / Stargate Origins / Сезон: 1 / Серии: 1-10 из 10 [2018 WEB-DLRip] MVO [AlexFilm] bober100 Скачать
1 | 0
Зарубежные сериалы [ 1.53 GB ] Звездные Врата: Истоки / Звездные врата: Начало / Stargate Origins / Сезон: 1 / Серии 1-10 из 10 [2018 WEB-DL Rip] MVO [LostFilm] GEKADOL Скачать
1 | 0
Зарубежные сериалы [ 1.96 GB ] Звездные врата: Начало / Stargate Origins / Сезон 1 / Серии 1-7 из 10 [2018 WEBRip 720p] MVO [ColdFIlm] bober100 Скачать
1 | 0
Зарубежные сериалы [ 962 MB ] Звездные врата: Начало / Stargate Origins / Сезон 1 / Серии 1-3 из 10 [2018 WEBRip 1080p] MVO [ColdFIlm] bober100 Скачать
1 | 0
Зарубежные сериалы [ 804 MB ] Звездные врата: Начало / Stargate Origins / Сезон 1 / Серии 1-7 из 10 [2018 WEBRip] MVO [ColdFIlm] bober100 Скачать
1 | 0

28-11-2019 20:33  

Отключить всю рекламу на сайте

    Дорогой пользователь! Огромная просьба, поблагодарите релизера, оцените раздачу и оставьте свои комментарий, если Вы скачали Звездные врата: Начало через торрент бесплатно! Внесите свою лепту в развитие PiratBit!
    Комментировать посты могут только пользователи прошедшие не сложную регистрацию
    Показать сообщения:    

    Звездные врата: Начало через торрент
    Скачать бесплатно Звездные врата: Начало
    Звездные врата: Начало скачать торрент
    Звездные врата: Начало смотреть онлайн
    Cкачать фильм Звездные врата: Начало бесплатно
    Звездные врата: Начало скачать торрент в хорошем качестве
    Звездные врата: Начало смотреть онлайн бесплатно в хорошем качестве


    Вы не можете начинать темы
    Вы не можете отвечать на сообщения
    Вы не можете редактировать свои сообщения
    Вы не можете удалять свои сообщения
    Вы не можете голосовать в опросах
    Вы не можете прикреплять файлы к сообщениям
    Вы можете скачивать файлы