Marvel's Avengers Deluxe Edition (супер цена) 159р. Внимание количество ограничено!!!

2 сезон

iTunes

iTunes

1

iTunes

iTunes

iTunes

WEBRip

iTunes

30
pack

Новость дня

ВАЖНО

!!Акция!!

Alien_RageХит недели

RePack

Horizon Zero Dawn

ИГРА 18+

pack

RePack

jed

!!Акция!!

Alien_Rage

RePack

fifa19

RePack

Assassins Creed: Odyssey

RePack

NEED FOR SPEED™ PAYBACK

4 сезон

9 сезон

Бесстыжие 9 сезон

Все сериалы

все сериалы на PB.wtf

RePack

FAR CRY 5
  

Игра для иммигрантов / Immigration Game (Кристоф Златник) [2017, боевик, триллер, драма, BDRip 720p] MVO ["Синема УС"] pb.wtf

Игра для иммигрантов через торрент pb.wtf

Размер: 4.34 GB | Добавлен: 2 года 6 мес. назад | Торрент скачан:15 раз
Скачать  

11-03-2018 20:10 Игра для иммигрантов Скачать торрент  

Игра для иммигрантов / Immigration GameГод выпуска: 2017
Страна: Германия
Жанр: боевик, триллер, драма
Продолжительность: 01:36:17
Перевод: Любительский (многоголосый) - ["Синема УС"]
Субтитры: отсутствуют

Режиссер: Кристоф Златник

rating

В ролях:

Матис Ландвер, Дениз Анкель, Катарина Спиррер, Симсон Буббель, Эскиндир Тесфай, Хорст-Гюнтер Маркс, Роберт Маазер, Ахмед Чейр, Алоис Кнаппс, Фолькрам Чише

Описание:

Альтернативный 2016 год, Германия отказалась принимать беженцев. Единственная возможность получить вид на жительство - участвовать в популярном шоу «Игра для иммигрантов». Цель «бегущих» - с окраины Берлина добраться до телебашни на Александерплац. Но задание усложняется тем, что любой немецкий гражданин имеет право безнаказанно преследовать участника, и даже убить его.

Качество: BDRip 720p
Формат: MKV
Видео кодек: H.264
Аудио кодек: AC3

Видео: 6007 Kb/s, 1280x688
Аудио#1: Русский, (AC3, 2 ch, 448 Кбит/с)
скриншот  скриншот  скриншот  

Общее
Уникальный идентификатор : 202281441232029818583321300126355492429 (0x982DFD0D6F73B1C79E5A896686B10E4D)
Полное имя : D:\Immigration.game.2017.P.BDRip.72Op_KOSHARA.mkv
Формат : Matroska
Версия формата : Version 2
Размер файла : 4,34 Гбайт
Продолжительность : 1 ч. 36 м.
Режим общего битрейта : Переменный
Общий поток : 6457 Кбит/сек
Дата кодирования : UTC 2018-03-11 16:12:47
Программа кодирования : mkvmerge v8.3.0 ('Over the Horizon') 64bit
Библиотека кодирования : libebml v1.3.1 + libmatroska v1.4.2

Видео
Идентификатор : 1
Формат : AVC
Формат/Информация : Advanced Video Codec
Профиль формата : High@L4.1
Параметр CABAC формата : Да
Параметр RefFrames формата : 4 кадра
Идентификатор кодека : V_MPEG4/ISO/AVC
Продолжительность : 1 ч. 36 м.
Вид битрейта : Переменный
Битрейт : 6007 Кбит/сек
Максимальный битрейт : 6700 Кбит/сек
Ширина : 1280 пикселей
Высота : 688 пикселей
Соотношение сторон : 1,85:1
Режим частоты кадров : Постоянный
Частота кадров : 23,976 (24000/1001) кадра/сек
Стандарт вещания : Component
Цветовое пространство : YUV
Субдискретизация насыщенности : 4:2:0
Битовая глубина : 8 бит
Тип развёртки : Прогрессивная
Бит/(Пиксели*Кадры) : 0.278
Размер потока : 3,95 Гбайт (91%)
Default : Да
Forced : Нет
Цветовой диапазон : Limited
Основные цвета : BT.709
Характеристики трансфера : BT.709
Коэффициенты матрицы : BT.709

Аудио
Идентификатор : 2
Формат : AC-3
Формат/Информация : Audio Coding 3
Расширение режима : CM (complete main)
Параметр Endianness формата : Big
Идентификатор кодека : A_AC3
Продолжительность : 1 ч. 36 м.
Вид битрейта : Постоянный
Битрейт : 448 Кбит/сек
Каналы : 2 канала
Расположение каналов : Front: L R
Частота : 48,0 КГц
Частота кадров : 31,250 кадров/сек (1536 spf)
Метод сжатия : С потерями
Размер потока : 309 Мбайт (7%)
Default : Да
Forced : Нет

pb.wtf



Скачать Игра для иммигрантов через торрент http://s019.radikal.ru/i612/1711/6f/c26e1c4ee9c0.jpg Скачать фильм Игра для иммигрантов через торрент бесплантно в хорошем качестве Описание: Альтернативный 2016 год, Германия отказалась принимать беженцев. Единственная возможность получить вид на жительство - ... 7 10 3
Торрент: Зарегистрирован [2018-03-11 20:10] · скачан: 15 раз
Статус: # сомнительно
Размер: 4.34 GB
Как cкачать? Как скачать Игра для иммигрантов через торрент | qTorrent

% Раздел Тема Автор DL S | L
T Фильмы (мультфильмы) cо спонсором показа (Новинки AVI/MKV) [ 1.37 GB ] Игра для иммигрантов / Immigration Game [2017 HDRip] MVO ["Синема УС"] bober100 Скачать
1 | 0

28-11-2019 20:33  

Отключить всю рекламу на сайте

11-03-2018 22:54 Игра для иммигрантов Скачать торрент  

Офигенный видать фильмpb.wtf



12-03-2018 04:21 Игра для иммигрантов Скачать торрент  

мда шедевррpb.wtf



18-03-2018 08:28 Игра для иммигрантов Скачать торрент  

Для вас, несмотревших, - фильм средненький.pb.wtf



    Дорогой пользователь! Огромная просьба, поблагодарите релизера, оцените раздачу и оставьте свои комментарий, если Вы скачали Игра для иммигрантов через торрент бесплатно! Внесите свою лепту в развитие PiratBit!
    Комментировать посты могут только пользователи прошедшие не сложную регистрацию
    Показать сообщения:    

    Игра для иммигрантов через торрент
    Скачать бесплатно Игра для иммигрантов
    Игра для иммигрантов скачать торрент
    Игра для иммигрантов смотреть онлайн
    Cкачать фильм Игра для иммигрантов бесплатно
    Игра для иммигрантов скачать торрент в хорошем качестве
    Игра для иммигрантов смотреть онлайн бесплатно в хорошем качестве


    Вы не можете начинать темы
    Вы не можете отвечать на сообщения
    Вы не можете редактировать свои сообщения
    Вы не можете удалять свои сообщения
    Вы не можете голосовать в опросах
    Вы не можете прикреплять файлы к сообщениям
    Вы можете скачивать файлы