2 сезон

iTunes

MVO

1

2 сезон

iTunes

iTunes

1 сезон

RePack

30

Ultimate

ВАЖНО

ИГРА 18+

pack

RePack

MK11
pack

Легкие деньги

RePack

jed

RePack

fifa19

RePack

RDR2

RePack

NEED FOR SPEED™ PAYBACK

4 сезон

9 сезон

Бесстыжие 9 сезон

Все сериалы

все сериалы на PB.wtf

RePack

FAR CRY 5

Anonymous, доброе утро, мы не успеваем собрать деньги на оплату серверов за декабрь и январь, помогите нам пожалуйста в это трудное время. В качестве благодарности мы отключим Вам всю рекламу на сайте (укажите свой ник в строку Ваше имя)!

×
  
Magnet ссылка

Стальной алхимик / Hagane no renkinjutsushi / Fullmetal Alchemist (Фумихико Сори) [2017, боевик, фэнтези, приключения, WEB] AlexFilm, AniDUB, VO [PiratVoice] - ExKinoRay pb.wtf

Стальной алхимик через торрент pb.wtf

Размер: 3.1 GB | Добавлен: 2 года 10 мес. назад | Торрент скачан:382 раза
Скачать  

11-03-2018 22:37 Стальной алхимик Скачать торрент  

Оригинальное название: Fullmetal Alchemist / Hagane no renkinjutsushi
Страна: Япония
Режиссер: Фумихико Сори
Жанр: боевик, фэнтези, приключения
Продолжительность: 02:14:26
Год выпуска: 2017
Перевод: Профессиональный (многоголосый, закадровый) [AlexFilm]
Любительский многоголосый [AniDUB]
Любительский (одноголосый, закадровый) PiratVoice
Субтитры: русские (форсированные, полные), английские
В ролях: Рёсукэ Ямада, Цубаса Хонда, Дин Фудзиока, Рюта Сато, Мисако Рэнбуцу, Ё Оидзуми, Кэндзиро Исимару, Ясуко Мацуюки, Синдзи Утияма, Каната Хонго

Описание:
В стране Аместрис алхимия широко распространена как точная наука. Два брата Эдвард и Альфонс Элрики ещё детьми пытались при помощи алхимии воскресить мёртвую маму, но поплатились за это. Старший лишился руки и ноги, младший - всего тела, хотя и был в самый последний момент чудом спасен - брат привязывает его душу к стальным рыцарским доспехам. Теперь два брата - первый со стальными протезами, второй - просто говорящий доспех - ищут философский камень, чтобы вернуть тело Альфонса.

rating

Файл
Формат: MKV
Качество: WEB-DLRip-AVC
Видео: MPEG-4 AVC, 1024x436 (2.35:1), 23.976 fps, 1695 Kbps, 0.158 bit/pixel
Аудио#1: 48 kHz, AC3, 3/2 (L,C,R,l,r) + LFE ch, ~384 kbps avg | AlexFilm|
Аудио#2: 48 kHz, AC3, 3/2 (L,C,R,l,r) + LFE ch, ~448 kbps avg | AniDub
Аудио#3: 48 kHz, AC3, 3/2 (L,C,R,l,r) + LFE ch, ~384 kbps avg | Cleric
Аудио#4: 48 kHz, AC3, 3/2 (L,C,R,l,r) + LFE ch, ~384 kbps avg | Jap
General
Unique ID : 210298310342803703199202900454269552805 (0x9E35FB376A631525B23FBE14489C88A5)
Complete name : D:\Fullmetal.alchemist.2017.3xRus.AVC.ExKinoRay.mkv
Format : Matroska
Format version : Version 2
File size : 3.10 GiB
Duration : 2 h 14 min
Overall bit rate : 3 297 kb/s
Movie name : Fullmetal Alchemist 2017 from ExKinoRay
Encoded date : UTC 2018-03-10 00:16:50
Writing application : mkvmerge v5.6.0 ('Kenya Kane') built on May 27 2012 16:44:04
Writing library : libebml v1.2.3 + libmatroska v1.3.0

Video
ID : 1
Format : AVC
Format/Info : Advanced Video Codec
Format profile : High@L4.1
Format settings, CABAC : Yes
Format settings, ReFrames : 12 frames
Codec ID : V_MPEG4/ISO/AVC
Duration : 2 h 14 min
Bit rate : 1 695 kb/s
Width : 1 024 pixels
Height : 436 pixels
Display aspect ratio : 2.35:1
Frame rate mode : Constant
Frame rate : 23.976 (23976/1000) FPS
Color space : YUV
Chroma subsampling : 4:2:0
Bit depth : 8 bits
Scan type : Progressive
Bits/(Pixel*Frame) : 0.158
Stream size : 1.53 GiB (49%)
Title : Enigma
Writing library : x264 core 152 r2851 ba24899
Encoding settings : cabac=1 / ref=12 / deblock=1:-2:-2 / analyse=0x3:0x113 / me=umh / subme=10 / psy=1 / psy_rd=1.00:0.05 / mixed_ref=1 / me_range=32 / chroma_me=1 / trellis=2 / 8x8dct=1 / cqm=0 / deadzone=21,11 / fast_pskip=0 / chroma_qp_offset=-3 / threads=12 / lookahead_threads=2 / sliced_threads=0 / nr=0 / decimate=0 / interlaced=0 / bluray_compat=0 / constrained_intra=0 / bframes=9 / b_pyramid=2 / b_adapt=2 / b_bias=0 / direct=3 / weightb=1 / open_gop=0 / weightp=2 / keyint=240 / keyint_min=23 / scenecut=40 / intra_refresh=0 / rc_lookahead=40 / rc=2pass / mbtree=0 / bitrate=1695 / ratetol=1.0 / qcomp=0.60 / qpmin=0 / qpmax=51 / qpstep=4 / cplxblur=20.0 / qblur=0.5 / vbv_maxrate=50000 / vbv_bufsize=62500 / nal_hrd=none / filler=0 / ip_ratio=1.40 / pb_ratio=1.30 / aq=3:0.80
Language : English
Default : Yes
Forced : No
Color range : Limited
Color primaries : BT.709
Transfer characteristics : BT.709
Matrix coefficients : BT.709

Audio #1
ID : 2
Format : AC-3
Format/Info : Audio Coding 3
Mode extension : CM (complete main)
Format settings, Endianness : Big
Codec ID : A_AC3
Duration : 2 h 14 min
Bit rate mode : Constant
Bit rate : 384 kb/s
Channel(s) : 6 channels
Channel positions : Front: L C R, Side: L R, LFE
Sampling rate : 48.0 kHz
Frame rate : 31.250 FPS (1536 spf)
Compression mode : Lossy
Stream size : 369 MiB (12%)
Title : MVO (AlexFilm)
Language : Russian
Default : Yes
Forced : No

Audio #2
ID : 3
Format : AC-3
Format/Info : Audio Coding 3
Mode extension : CM (complete main)
Format settings, Endianness : Big
Codec ID : A_AC3
Duration : 2 h 14 min
Bit rate mode : Constant
Bit rate : 448 kb/s
Channel(s) : 6 channels
Channel positions : Front: L C R, Side: L R, LFE
Sampling rate : 48.0 kHz
Frame rate : 31.250 FPS (1536 spf)
Compression mode : Lossy
Stream size : 431 MiB (14%)
Title : MVO (AniDUB)
Language : Russian
Default : No
Forced : No

Audio #3
ID : 4
Format : AC-3
Format/Info : Audio Coding 3
Mode extension : CM (complete main)
Format settings, Endianness : Big
Codec ID : A_AC3
Duration : 2 h 14 min
Bit rate mode : Constant
Bit rate : 384 kb/s
Channel(s) : 6 channels
Channel positions : Front: L C R, Side: L R, LFE
Sampling rate : 48.0 kHz
Frame rate : 31.250 FPS (1536 spf)
Compression mode : Lossy
Stream size : 369 MiB (12%)
Title : VO (PiratVoice, Cleric)
Language : Russian
Default : No
Forced : No

Audio #4
ID : 5
Format : AC-3
Format/Info : Audio Coding 3
Mode extension : CM (complete main)
Format settings, Endianness : Big
Codec ID : A_AC3
Duration : 2 h 14 min
Bit rate mode : Constant
Bit rate : 384 kb/s
Channel(s) : 6 channels
Channel positions : Front: L C R, Side: L R, LFE
Sampling rate : 48.0 kHz
Frame rate : 31.250 FPS (1536 spf)
Compression mode : Lossy
Stream size : 369 MiB (12%)
Language : Japanese
Default : No
Forced : No

Text #1
ID : 6
Format : UTF-8
Codec ID : S_TEXT/UTF8
Codec ID/Info : UTF-8 Plain Text
Title : Forced
Language : Russian
Default : Yes
Forced : No

Text #2
ID : 7
Format : UTF-8
Codec ID : S_TEXT/UTF8
Codec ID/Info : UTF-8 Plain Text
Title : Full
Language : Russian
Default : No
Forced : No

Text #3
ID : 8
Format : UTF-8
Codec ID : S_TEXT/UTF8
Codec ID/Info : UTF-8 Plain Text
Language : English
Default : No
Forced : No
Рекламы нет!

Релиз от:

Автор релиза: pb.wtf



Скачать Стальной алхимик через торрент http://i99.fastpic.ru/big/2018/0225/0e/bd4459922654928920fbcf9195a64e0e.gif Скачать фильм Стальной алхимик через торрент бесплантно в хорошем качестве Описание: В стране Аместрис алхимия широко распространена как точная наука. Два брата Эдвард и Альфонс Элрики ещё детьми пытались при ... 10 10 6
Info! Золотая раздача, скачанное не засчитывается.
Торрент: Зарегистрирован [2018-03-11 22:37] · скачан: 382 раз
Статус: √ проверено
Размер: 3.1 GB
Как cкачать? Как скачать Стальной алхимик через торрент | UTorrent

28-11-2019 20:33  

Отключить всю рекламу на сайте


12-03-2018 07:12 Стальной алхимик Скачать торрент  

такая дичьpb.wtf



12-03-2018 13:32 Стальной алхимик Скачать торрент  

montolamey писал(а):

такая дичь

Аниме прикольное, а фильм да....pb.wtf



23-03-2018 21:42 Стальной алхимик Скачать торрент  

ну не понятно.....говно???pb.wtf



    Дорогой пользователь! Огромная просьба, поблагодарите релизера, оцените раздачу и оставьте свои комментарий, если Вы скачали Стальной алхимик через торрент бесплатно! Внесите свою лепту в развитие PiratBit!
    Комментировать посты могут только пользователи прошедшие не сложную регистрацию
    Показать сообщения:    

    Стальной алхимик через торрент
    Скачать бесплатно Стальной алхимик
    Стальной алхимик скачать торрент
    Стальной алхимик смотреть онлайн
    Cкачать фильм Стальной алхимик бесплатно
    Стальной алхимик скачать торрент в хорошем качестве
    Стальной алхимик смотреть онлайн бесплатно в хорошем качестве


    Вы не можете начинать темы
    Вы не можете отвечать на сообщения
    Вы не можете редактировать свои сообщения
    Вы не можете удалять свои сообщения
    Вы не можете голосовать в опросах
    Вы не можете прикреплять файлы к сообщениям
    Вы можете скачивать файлы