Ссылка на приватное зеркало нашего сайта всего за 1$. Внимание количество ограничено!!!

2 сезон

iTunes

1 сезон

1

iTunes

iTunes

iTunes

1 сезон

RePack

30

ИГРА 18+

pack

ВАЖНО

!!Акция!!

Alien_RageХит недели

RePack

MK11
pack

Забери бонус

RePack

jed

!!Акция!!

Alien_Rage

RePack

fifa19

RePack

Assassins Creed: Odyssey

RePack

NEED FOR SPEED™ PAYBACK

4 сезон

9 сезон

Бесстыжие 9 сезон

Все сериалы

все сериалы на PB.wtf

RePack

FAR CRY 5
  

По ту сторону смерти / Сезон 1 / (Серии 1-16 из 16) (Сергей Чекалов) [2017 , детектив, триллер, HDTV 1080p] Не требуется [Русский] R.G.Generalfilm pb.wtf

По ту сторону смерти через торрент pb.wtf

Раздают: 1 [ 0 KB/s ]
Размер: 39.67 GB | Добавлен: 2 года 7 мес. назад | Торрент скачан:86 раз
Скачать  

11-03-2018 23:57 По ту сторону смерти Скачать торрент  

По ту сторону смерти


Год выпуска: 2017

Страна: Россия
Жанр: детектив, триллер
Продолжительность: 00:48:54
Перевод: Не требуется [Русский]
Режиссер: Сергей Чекалов
В ролях:

Сергей Гармаш (Глеб Точилин, следователь СК), Светлана Ходченкова (Юлия Дёмина, сотрудница института мозга), Виктор Добронравов (Алексей Быстров), Илья Любимов (Лукас), Виктория Исакова (Анна Покровская), Борис Невзоров, Александр Рапопорт, Марта Тимофеева (Настя), Артем Лысков (Валиулин), Джан Бадмаев (доктор Накамура в молодости), Александр Цереня (Лосев), Сергей Комаров (Руслан Идигов)
Описание:
Сюжет начинается со странной истории, в которой пытается разобраться следователь СК Глеб Точилин перед выходом на пенсию. Он должен найти исчезнувшее из морга тело Алексея Быстрова, который попал под поезд, а на следующий день... встал и ушёл на своих двоих. В поисках «живого трупа» Точилину помогает сотрудница Института мозга Юлия Дёмина, которую пропавший спас из-под колёс электрички.

Качество: HDTV 1080p by
Формат: MKV
Видео кодек: AVC
Аудио кодек: AC3
Видео: AVC, 1920x1080 (16:9), 7050 kbps, 25 fps, 0,136 bpp
Аудио: AC3 / 2.0 / 48 kHz / 192 kbps /
General
Unique ID : 217218780143437668561719877954679900786 (0xA36AD0B88F2E3723873109AAB2F88A72)
Complete name : E:\запись с тв\Po tu storonu smerti.2018i HDTV 1080p.R.G.Generalfilm\Po tu storonu smerti.s01.e16.2018.HDTV 1080p.by.White Smoke.R.G.Generalfilm.mkv
Format : Matroska
Format version : Version 4 / Version 2
File size : 2.45 GiB
Duration : 48 min
Overall bit rate mode : Constant
Overall bit rate : 7 163 kb/s
Movie name : Po tu storonu smerti.s01.e16.2018.HDTV 1080p.by.White Smoke.R.G.Generalfilm.mkv
Encoded date : UTC 2018-03-11 23:12:55
Writing application : mkvmerge v6.8.0 ('Theme for Great Cities') 64bit built on Mar 2 2014 21:34:26
Writing library : libebml v1.3.0 + libmatroska v1.4.1

Video
ID : 1
Format : AVC
Format/Info : Advanced Video Codec
Format profile : High@L4.1
Format settings, CABAC : Yes
Format settings, ReFrames : 3 frames
Format settings, GOP : M=3, N=33
Codec ID : V_MPEG4/ISO/AVC
Duration : 48 min
Bit rate mode : Constant
Bit rate : 7 051 kb/s
Width : 1 920 pixels
Height : 1 080 pixels
Display aspect ratio : 16:9
Frame rate mode : Constant
Frame rate : 25.000 FPS
Standard : PAL
Color space : YUV
Chroma subsampling : 4:2:0
Bit depth : 8 bits
Scan type : Progressive
Bits/(Pixel*Frame) : 0.136
Stream size : 2.33 GiB (95%)
Default : No
Forced : No
Color range : Limited
Color primaries : BT.709
Transfer characteristics : BT.709
Matrix coefficients : BT.709

Audio
ID : 2
Format : AC-3
Format/Info : Audio Coding 3
Mode extension : CM (complete main)
Format settings, Endianness : Big
Codec ID : A_AC3
Duration : 48 min
Bit rate mode : Constant
Bit rate : 192 kb/s
Channel(s) : 2 channels
Channel positions : Front: L R
Sampling rate : 48.0 kHz
Frame rate : 31.250 FPS (1536 spf)
Compression mode : Lossy
Delay relative to video : -200 ms
Stream size : 67.2 MiB (3%)
Default : No
Forced : No
pb.wtf



Скачать По ту сторону смерти через торрент http://i102.fastpic.ru/big/2018/0312/3e/8b763c9b8555f78fee465126728b443e.png Скачать фильм По ту сторону смерти через торрент бесплантно в хорошем качестве Описание: Сюжет начинается со странной истории, в которой пытается разобраться следователь СК Глеб Точилин перед выходом на пенсию. Он ... 10 10 1
Info! Золотая раздача, скачанное не засчитывается.
Торрент: Зарегистрирован [2018-03-11 23:57] · скачан: 86 раз
Статус: √ проверено
Размер: 39.67 GB
Как cкачать? Как скачать По ту сторону смерти через торрент | qTorrent

28-11-2019 20:33  

Отключить всю рекламу на сайте

    Дорогой пользователь! Огромная просьба, поблагодарите релизера, оцените раздачу и оставьте свои комментарий, если Вы скачали По ту сторону смерти через торрент бесплатно! Внесите свою лепту в развитие PiratBit!
    Комментировать посты могут только пользователи прошедшие не сложную регистрацию
    Показать сообщения:    

    По ту сторону смерти через торрент
    Скачать бесплатно По ту сторону смерти
    По ту сторону смерти скачать торрент
    По ту сторону смерти смотреть онлайн
    Cкачать фильм По ту сторону смерти бесплатно
    По ту сторону смерти скачать торрент в хорошем качестве
    По ту сторону смерти смотреть онлайн бесплатно в хорошем качестве


    Вы не можете начинать темы
    Вы не можете отвечать на сообщения
    Вы не можете редактировать свои сообщения
    Вы не можете удалять свои сообщения
    Вы не можете голосовать в опросах
    Вы не можете прикреплять файлы к сообщениям
    Вы можете скачивать файлы