Ссылка на приватное зеркало нашего сайта всего за 1$. Внимание количество ограничено!!!

2 сезон

iTunes

1 сезон

1

iTunes

iTunes

iTunes

1 сезон

RePack

30

ИГРА 18+

pack

ВАЖНО

!!Акция!!

Alien_RageХит недели

RePack

MK11
pack

Забери бонус

RePack

jed

!!Акция!!

Alien_Rage

RePack

fifa19

RePack

Assassins Creed: Odyssey

RePack

NEED FOR SPEED™ PAYBACK

4 сезон

9 сезон

Бесстыжие 9 сезон

Все сериалы

все сериалы на PB.wtf

RePack

FAR CRY 5
  

Консультант / Сезон: 1 / Серии: 1-10 из 10 (Алексей Рудаков) [2017, Детектив, триллер, HDTVRip 720p] pb.wtf

Консультант через торрент pb.wtf

Размер: 12.59 GB | Добавлен: 2 года 7 мес. назад | Торрент скачан:58 раз
Скачать  

12-03-2018 00:58 Консультант Скачать торрент  

КонсультантГод выпуска: 2017
Страна: Россия
Жанр: Детектив, триллер
Продолжительность: 10 х 00:45:00
Субтитры: отсутствуют

Режиссер: Алексей Рудаков



В ролях:

Кирилл Кяро, Максим Дрозд, Светлана Иванова, Елена Великанова, Анастасия Чистякова, Иван Рудаков, Екатерина Вуличенко, Дмитрий Поднозов, Наталья Ткаченко, Владимир Матвеев, Фёдор Лавров, Алексей Байдаков, Сергей Барковский, Владимир Богданов, Юрий Ицков, Александр Большаков, Андрей Мокеев, Олег Фёдоров, Илья Борисов, Сергей Кузнецов, Павел Григорьев, Олег Куликович, Даниил Кокин, Наталья Щукина, Константин Демидов, Екатерина Унтилова, Ольга Онищенко, Наталья Парашкина

Описание:

1990-й год. В провинциальном городе идет суд над страшным маньяком, который терроризировал область зверскими убийствами в течение долгих лет. Приехавший из области эксперт-психолог Вячеслав Широков возмущает общественность неожиданным заявлением. По его мнению судят не того! Психологический портрет преступника, составленный Широковым по материалам дела, не соответствует психологическому портрету подсудимого. Вынесение приговора откладывают. Этим Широков наживает себе врагов в лице всего населения города, вступает в прямой конфликт со следователем Олегом Брагиным, который потратил десять лет жизни на поимку преступника и уверен в своей правоте. Широков и Брагин – антиподы, но вынуждены сотрудничать. Теорию Широкова о «психологическом портрете преступника» никто не воспринимает всерьез, пока в городе не происходит новое страшное убийство.

Качество: HDTVRip 720p
Формат: MKV

Видео: MPEG-4 AVC, ~ 3500 Кбит/с, 1280x720, 25 кадр/с
Аудио: AC3, 2 ch, 192 Кбит/с
скриншот   скриншот   скриншот  

Общее
Уникальный идентификатор : 247093259264485928538454118963558970831 (0xB9E46E42D6998D068DF2F9B165DB75CF)
Полное имя : D:\Konsultant.2016.HDTVRip.(720p).Nikolspup\Konsultant.(01.seriya).2016.HDTVRip.(720p).Nikolspup.mkv
Формат : Matroska
Версия формата : Version 4 / Version 2
Размер файла : 1,24 Гбайт
Продолжительность : 48 м. 6 с.
Общий поток : 3684 Кбит/сек
Дата кодирования : UTC 2017-04-04 06:37:57
Программа кодирования : mkvmerge v7.8.0 ('River Man') 32bit built on Apr 3 2015 12:11:22
Библиотека кодирования : libebml v1.3.1 + libmatroska v1.4.2

Видео
Идентификатор : 1
Формат : AVC
Формат/Информация : Advanced Video Codec
Профиль формата : High@L4.1
Параметр CABAC формата : Да
Параметр RefFrames формата : 9 кадров
Идентификатор кодека : V_MPEG4/ISO/AVC
Продолжительность : 48 м. 6 с.
Битрейт : 3500 Кбит/сек
Ширина : 1280 пикселей
Высота : 720 пикселей
Соотношение сторон : 16:9
Режим частоты кадров : Постоянный
Частота кадров : 25,000 кадров/сек
Цветовое пространство : YUV
Субдискретизация насыщенности : 4:2:0
Битовая глубина : 8 бит
Тип развёртки : Прогрессивная
Бит/(Пиксели*Кадры) : 0.152
Размер потока : 1,17 Гбайт (95%)
Библиотека кодирования : x264 core 146 r2538 121396c
Настройки программы : cabac=1 / ref=9 / deblock=1:-3:-3 / analyse=0x3:0x113 / me=umh / subme=11 / psy=1 / psy_rd=1.00:0.20 / mixed_ref=1 / me_range=32 / chroma_me=1 / trellis=2 / 8x8dct=1 / cqm=0 / deadzone=21,11 / fast_pskip=1 / chroma_qp_offset=-3 / threads=6 / lookahead_threads=1 / sliced_threads=0 / nr=0 / decimate=0 / interlaced=0 / bluray_compat=0 / constrained_intra=0 / bframes=12 / b_pyramid=2 / b_adapt=2 / b_bias=0 / direct=3 / weightb=1 / open_gop=0 / weightp=2 / keyint=250 / keyint_min=25 / scenecut=40 / intra_refresh=0 / rc_lookahead=60 / rc=2pass / mbtree=1 / bitrate=3500 / ratetol=1.0 / qcomp=0.60 / qpmin=0 / qpmax=69 / qpstep=4 / cplxblur=20.0 / qblur=0.5 / vbv_maxrate=14000 / vbv_bufsize=14000 / nal_hrd=none / filler=0 / ip_ratio=1.40 / aq=3:1.00
Default : Нет
Forced : Нет
Цветовой диапазон : Limited
Основные цвета : BT.709
Характеристики трансфера : BT.709
Коэффициенты матрицы : BT.709

Аудио
Идентификатор : 2
Формат : AC-3
Формат/Информация : Audio Coding 3
Расширение режима : CM (complete main)
Параметр Endianness формата : Big
Идентификатор кодека : A_AC3
Продолжительность : 48 м. 6 с.
Вид битрейта : Постоянный
Битрейт : 192 Кбит/сек
Каналы : 2 канала
Расположение каналов : Front: L R
Частота : 48,0 КГц
Частота кадров : 31,250 кадров/сек (1536 spf)
Метод сжатия : С потерями
Размер потока : 66,1 Мбайт (5%)
Язык : Russian
Default : Да
Forced : Да

pb.wtf



Скачать Консультант через торрент http://img12.lostpic.net/2018/03/11/11d88f3ef5810f43b4c7c42cf7d6068d.jpg Скачать фильм Консультант через торрент бесплантно в хорошем качестве Описание: 1990-й год. В провинциальном городе идет суд над страшным маньяком, который терроризировал область зверскими убийствами в течение ... 10 10 3
Торрент: Зарегистрирован [2018-03-12 00:58] · скачан: 58 раз
Статус: √ проверено
Размер: 12.59 GB
Как cкачать? Как скачать Консультант через торрент | qTorrent

% Раздел Тема Автор DL S | L
Наши сериалы [ 22.91 GB ] Консультант / Сезон: 1 / Серии: 1-16 из 16 [2020 WEB-DL 1080p] bober100 Скачать
1 | 0
Наши сериалы [ 14.52 GB ] Консультант / Сезон: 2 / Серии: 1-10 из 10 [2019 WEB-DL 720p] bober100 Скачать
1 | 0
Наши сериалы [ 21.32 GB ] Консультант / Сезон: 2 / Серии: 1-10 из 10 [2019 WEB-DL 1080p] bober100 Скачать
1 | 0
Наши сериалы [ 6.59 GB ] Консультант / Сезон: 2 / Серии: 1-10 из 10 [2019 SATRip] bober100 Скачать
1 | 0
Наши сериалы [ 6.21 GB ] Консультант / Сезон: 2 / Серии: 1-10 из 10 [2019 SATRip-AVC] aleksan55 Скачать
2 | 0
Наши сериалы [ 5.45 GB ] Консультант / Сезон: 2 / Серии: 1- 10 из 10 [2019 WEBRip] oleg8 Скачать
1 | 0
Наши сериалы [ 18.42 GB ] Консультант / Сезон: 1 / Серии: 1-10 из 10 [2017 WEB-DL 1080p] bober100 Скачать
1 | 1

28-11-2019 20:33  

Отключить всю рекламу на сайте

    Дорогой пользователь! Огромная просьба, поблагодарите релизера, оцените раздачу и оставьте свои комментарий, если Вы скачали Консультант через торрент бесплатно! Внесите свою лепту в развитие PiratBit!
    Комментировать посты могут только пользователи прошедшие не сложную регистрацию
    Показать сообщения:    

    Консультант через торрент
    Скачать бесплатно Консультант
    Консультант скачать торрент
    Консультант смотреть онлайн
    Cкачать фильм Консультант бесплатно
    Консультант скачать торрент в хорошем качестве
    Консультант смотреть онлайн бесплатно в хорошем качестве


    Вы не можете начинать темы
    Вы не можете отвечать на сообщения
    Вы не можете редактировать свои сообщения
    Вы не можете удалять свои сообщения
    Вы не можете голосовать в опросах
    Вы не можете прикреплять файлы к сообщениям
    Вы можете скачивать файлы