Ссылка на приватное зеркало нашего сайта всего за 1$. Внимание количество ограничено!!!

2 сезон

iTunes

1 сезон

1

2 сезон

2 сезон

iTunes

1 сезон

RePack

30

Новинка

ВАЖНО

ИГРА 18+

pack

RePack

MK11
pack

Забери бонус

RePack

jed

!!Акция!!

Alien_Rage

RePack

fifa19

RePack

Assassins Creed: Odyssey

RePack

NEED FOR SPEED™ PAYBACK

4 сезон

9 сезон

Бесстыжие 9 сезон

Все сериалы

все сериалы на PB.wtf

RePack

FAR CRY 5
  

Грейстоук. Легенда о Тарзане, повелителе обезьян / Greystoke: The Legend of Tarzan, Lord of the Apes (Хью Хадсон) [1984, приключения, драма, BDRip 1080p by msltel] DUB, MVO, 2 x AVO pb.wtf

Грейстоук. Легенда о Тарзане, повелителе обезьян через торрент pb.wtf

Размер: 15.08 GB | Добавлен: 2 года 8 мес. назад | Торрент скачан:21 раз
Скачать  

12-03-2018 05:20 Грейстоук. Легенда о Тарзане, повелителе обезьян Скачать торрент  

Название: Грейстоук. Легенда о Тарзане, повелителе обезьян
Оригинальное название: Greystoke: The Legend of Tarzan, Lord of the Apes
Год выпуска: 1984
Страна: Великобритания, США
Жанр: приключения, драма
Продолжительность: 02:17:00
Перевод: дублированный, профессиональный многоголосый, авторский

Режиссер: Хью Хадсон
В ролях: Кристофер Ламберт, Энди МакДауэлл, Ральф Ричардсон, Иэн Холм, Шерил Кэмпбелл, Ян Чарльсон, Найджел Девенпорт, Николас Фэррел, Пол Джеффри, Ричард Гриффитс, Хилтон МакРей, Дэвид Суше, Пол Брук, Тристрам Йеллинек, Родди Мауд-Роксби, Эйлса Берк, Мак Уилсон, Тесса Крокетт, Тина Мэскелл, Дип Рой, Киран Шах, Филип Тэн, Джордж Ясоуми, Дуглас Манн, Джеймс Фокс, Эмиль Абоссоло Мбо, Дерек Лайонс, Харриет Торп, Бриджет Бьяджи, Илэйн Коллинз, Шейла Латимер, Андреа Миллер

О фильме: Шотландия. 1886 год. Старый граф Грейстоук помогает уехать в Африку своему сыну Джону Клейтону с женой Алисой. Приключение молодой пары пошло неудачно: они терпят кораблекрушение на западном побережье Африки и пытаются выжить в ожидании помощи в самодельном жилье. Алиса умирает после рождения сына. Джон почти сразу же после жены стал жертвой свирепых обезьян, а ребёнок попадает в стадо обезьяны. Сын Клейтона Джон не только приспосабливается к среде обитания и образу жизни обезьян, крепнет и мужает, но и становится их властелином. На двадцатом году жизни среди обезьян он спасает учёного Филиппа д’Арно, главу научной экспедиции Британского музея, раненого пигмеем. Филипп д’Арно обнаруживает убежище Клейтонов и документы благородного дикаря, своего спасителя. Он делает всё, чтобы привести Джона обратно в родовой замок в Шотландии к его деду. Но в изысканной и надменной английской цивилизации времен Эдуарда VI с её сложным и ледяным кодексом поведения Джону, графу Грейстоку, многое не нравится. Особенно то, что обезьян содержат в неволе и проводят над ними опыты. Потеряв двух близких ему существ, деда и своего приёмного отца-шимпанзе, молодой Грейстоук с женой Джейн возвращается назад в джунгли Африки... Фильм по произведениям Эдгара Райса Берроуза.



Качество: BDRip 1080p
Формат: MKV
Видео: MPEG-4 AVC, 12.2 Мбит/с, 1920x800, 23.976 кадр/c
Аудио 1: русский, AC3, 192 kbps, 2 ch, 48 kHz [дублированный, Варус-Видео]
Аудио 2: русский, AC3, 192 kbps, 2 ch, 48 kHz [закадровый многоголосый]
Аудио 3: русский, AC3, 192 kbps, 2 ch, 48 kHz [авторский, Леонид Володарский]
Аудио 4: русский, DTS, 1509 kbps, 6 ch, 48 kHz [авторский, Алексей Михалёв]
Аудио 5: английский, DTS, 1509 kbps, 6 ch, 48 kHz [оригинал]
Субтитры 1: русские
Субтитры 2: английские
Главы/чаптеры
Общее
Уникальный идентификатор : 233930237030591600552459119449657636833 (0xAFFD5328AE27B7CA88F33B52CFF0F7E1)
Полное имя : D:\Video\Легенда о Тарзане.1984.BDRip.1080p by msltel.mkv
Формат : Matroska
Версия формата : Version 4 / Version 2
Размер файла : 15,1 Гбайт
Продолжительность : 2 ч. 17 м.
Общий поток : 15,8 Мбит/сек
Название фильма : Rip by msltel
Дата кодирования : UTC 2018-03-11 18:04:30
Программа кодирования : mkvmerge v8.2.0 ('World of Adventure') 64bit
Библиотека кодирования : libebml v1.3.1 + libmatroska v1.4.2

Видео
Идентификатор : 1
Формат : AVC
Формат/Информация : Advanced Video Codec
Профиль формата : High@L4.1
Настройки формата : CABAC / 4 Ref Frames
Параметр CABAC формата : Да
Параметр RefFrames формата : 4 кадра
Идентификатор кодека : V_MPEG4/ISO/AVC
Продолжительность : 2 ч. 17 м.
Битрейт : 12,2 Мбит/сек
Ширина : 1920 пикселей
Высота : 800 пикселей
Соотношение сторон : 2,40:1
Режим частоты кадров : Постоянный
Частота кадров : 23,976 (24000/1001) кадра/сек
Цветовое пространство : YUV
Субдискретизация насыщенности : 4:2:0
Битовая глубина : 8 бит
Тип развёртки : Прогрессивная
Бит/(Пиксели*Кадры) : 0.330
Размер потока : 11,6 Гбайт (77%)
Библиотека кодирования : x264 core 146 r2538 121396c
Настройки программы : cabac=1 / ref=4 / deblock=1:-3:-2 / analyse=0x3:0x113 / me=umh / subme=11 / psy=1 / psy_rd=1.00:0.15 / mixed_ref=1 / me_range=32 / chroma_me=1 / trellis=2 / 8x8dct=1 / cqm=0 / deadzone=21,11 / fast_pskip=0 / chroma_qp_offset=-3 / threads=6 / lookahead_threads=1 / sliced_threads=0 / nr=0 / decimate=1 / interlaced=0 / bluray_compat=0 / constrained_intra=0 / bframes=11 / b_pyramid=2 / b_adapt=2 / b_bias=0 / direct=1 / weightb=1 / open_gop=0 / weightp=2 / keyint=230 / keyint_min=23 / scenecut=40 / intra_refresh=0 / rc_lookahead=40 / rc=crf / mbtree=0 / crf=19.0 / qcomp=0.60 / qpmin=0 / qpmax=69 / qpstep=4 / vbv_maxrate=62500 / vbv_bufsize=78125 / crf_max=0.0 / nal_hrd=none / filler=0 / ip_ratio=1.40 / pb_ratio=1.30 / aq=1:1.00
Язык : English
Default : Да
Forced : Нет

Аудио #1
Идентификатор : 2
Формат : AC-3
Формат/Информация : Audio Coding 3
Идентификатор кодека : A_AC3
Продолжительность : 2 ч. 16 м.
Вид битрейта : Постоянный
Битрейт : 192 Кбит/сек
Каналы : 2 канала
Расположение каналов : Front: L R
Частота : 48,0 КГц
Частота кадров : 31,250 кадров/сек (1536 SPF)
Битовая глубина : 16 бит
Метод сжатия : С потерями
Размер потока : 188 Мбайт (1%)
Заголовок : DUB Варус-Видео
Язык : Russian
ServiceKind/String : Complete Main
Default : Да
Forced : Нет

Аудио #2
Идентификатор : 3
Формат : AC-3
Формат/Информация : Audio Coding 3
Идентификатор кодека : A_AC3
Продолжительность : 2 ч. 17 м.
Вид битрейта : Постоянный
Битрейт : 192 Кбит/сек
Каналы : 2 канала
Расположение каналов : Front: L R
Частота : 48,0 КГц
Частота кадров : 31,250 кадров/сек (1536 SPF)
Битовая глубина : 16 бит
Метод сжатия : С потерями
Размер потока : 188 Мбайт (1%)
Заголовок : MVO
Язык : Russian
ServiceKind/String : Complete Main
Default : Нет
Forced : Нет

Аудио #3
Идентификатор : 4
Формат : AC-3
Формат/Информация : Audio Coding 3
Идентификатор кодека : A_AC3
Продолжительность : 2 ч. 17 м.
Вид битрейта : Постоянный
Битрейт : 192 Кбит/сек
Каналы : 2 канала
Расположение каналов : Front: L R
Частота : 48,0 КГц
Частота кадров : 31,250 кадров/сек (1536 SPF)
Битовая глубина : 16 бит
Метод сжатия : С потерями
Размер потока : 188 Мбайт (1%)
Заголовок : Леонид Володарский
Язык : Russian
ServiceKind/String : Complete Main
Default : Нет
Forced : Нет

Аудио #4
Идентификатор : 5
Формат : DTS
Формат/Информация : Digital Theater Systems
Идентификатор кодека : A_DTS
Продолжительность : 2 ч. 17 м.
Вид битрейта : Постоянный
Битрейт : 1509 Кбит/сек
Каналы : 6 каналов
Расположение каналов : Front: L C R, Side: L R, LFE
Частота : 48,0 КГц
Частота кадров : 93,750 кадра/сек (512 SPF)
Битовая глубина : 24 бит
Метод сжатия : С потерями
Размер потока : 1,44 Гбайт (10%)
Заголовок : Алексей Михалёв
Язык : Russian
Default : Нет
Forced : Нет

Аудио #5
Идентификатор : 6
Формат : DTS
Формат/Информация : Digital Theater Systems
Идентификатор кодека : A_DTS
Продолжительность : 2 ч. 17 м.
Вид битрейта : Постоянный
Битрейт : 1509 Кбит/сек
Каналы : 6 каналов
Расположение каналов : Front: L C R, Side: L R, LFE
Частота : 48,0 КГц
Частота кадров : 93,750 кадра/сек (512 SPF)
Битовая глубина : 24 бит
Метод сжатия : С потерями
Размер потока : 1,44 Гбайт (10%)
Заголовок : original
Язык : English
Default : Нет
Forced : Нет

Текст #1
Идентификатор : 7
Формат : UTF-8
Идентификатор кодека : S_TEXT/UTF8
Идентификатор кодека/Информация : UTF-8 Plain Text
Продолжительность : 2 ч. 8 м.
Битрейт : 31 бит/сек
ElementCount : 677
Размер потока : 29,5 Кбайт (0%)
Заголовок : русские
Язык : Russian
Default : Нет
Forced : Нет

Текст #2
Идентификатор : 8
Формат : UTF-8
Идентификатор кодека : S_TEXT/UTF8
Идентификатор кодека/Информация : UTF-8 Plain Text
Продолжительность : 2 ч. 6 м.
Битрейт : 23 бит/сек
ElementCount : 760
Размер потока : 21,3 Кбайт (0%)
Заголовок : английские
Язык : English
Default : Нет
Forced : Нет

Меню
00:00:00.000 : :Chapter 01
00:01:41.100 : :Chapter 02
00:03:37.926 : :Chapter 03
00:05:52.185 : :Chapter 04
00:08:40.477 : :Chapter 05
00:11:14.591 : :Chapter 06
00:16:04.839 : :Chapter 07
00:18:53.006 : :Chapter 08
00:22:55.873 : :Chapter 09
00:27:50.460 : :Chapter 10
00:32:18.854 : :Chapter 11
00:37:13.648 : :Chapter 12
00:41:54.929 : :Chapter 13
00:44:56.109 : :Chapter 14
00:49:41.312 : :Chapter 15
00:53:28.872 : :Chapter 16
00:55:54.977 : :Chapter 17
00:59:53.881 : :Chapter 18
01:04:40.502 : :Chapter 19
01:09:12.064 : :Chapter 20
01:13:34.075 : :Chapter 21
01:17:00.907 : :Chapter 22
01:20:31.410 : :Chapter 23
01:24:52.336 : :Chapter 24
01:28:47.572 : :Chapter 25
01:31:58.388 : :Chapter 26
01:34:52.020 : :Chapter 27
01:36:04.341 : :Chapter 28
01:38:31.906 : :Chapter 29
01:41:44.932 : :Chapter 30
01:46:33.262 : :Chapter 31
01:52:07.638 : :Chapter 32
01:55:25.919 : :Chapter 33
01:58:10.917 : :Chapter 34
02:05:33.735 : :Chapter 35
02:10:56.599 : :Chapter 36
02:13:18.657 : :Chapter 37
pb.wtf



Скачать Грейстоук. Легенда о Тарзане, повелителе обезьян через торрент https://d.radikal.ru/d37/1803/62/0b58105fc7da.jpg Скачать фильм Грейстоук. Легенда о Тарзане, повелителе обезьян через торрент бесплантно в хорошем качестве О фильме: Шотландия. 1886 год. Старый граф Грейстоук помогает уехать в Африку своему сыну Джону Клейтону с женой Алисой. Приключение ... 10 10 2
Info! Золотая раздача, скачанное не засчитывается.
Торрент: Зарегистрирован [2018-03-12 05:20] · скачан: 21 раз
Статус: √ проверено
Размер: 15.08 GB
Как cкачать? Как скачать Грейстоук. Легенда о Тарзане, повелителе обезьян через торрент | qTorrent

% Раздел Тема Автор DL S | L
Фильмы [HD 720p, 1080p] (Хороший звук DUB, MVO) [ 5.76 GB ] Грейстоук. Легенда о Тарзане повелителе обезьян / Greystoke: The Legend of Tarzan Lord of the Apes [1984 BDRip 720p by msltel] DUB MVO 2 x AVO msltel Скачать
1 | 0

28-11-2019 20:33  

Отключить всю рекламу на сайте

    Дорогой пользователь! Огромная просьба, поблагодарите релизера, оцените раздачу и оставьте свои комментарий, если Вы скачали Грейстоук. Легенда о Тарзане, повелителе обезьян через торрент бесплатно! Внесите свою лепту в развитие PiratBit!
    Комментировать посты могут только пользователи прошедшие не сложную регистрацию
    Показать сообщения:    

    Грейстоук. Легенда о Тарзане, повелителе обезьян через торрент
    Скачать бесплатно Грейстоук. Легенда о Тарзане, повелителе обезьян
    Грейстоук. Легенда о Тарзане, повелителе обезьян скачать торрент
    Грейстоук. Легенда о Тарзане, повелителе обезьян смотреть онлайн
    Cкачать фильм Грейстоук. Легенда о Тарзане, повелителе обезьян бесплатно
    Грейстоук. Легенда о Тарзане, повелителе обезьян скачать торрент в хорошем качестве
    Грейстоук. Легенда о Тарзане, повелителе обезьян смотреть онлайн бесплатно в хорошем качестве


    Вы не можете начинать темы
    Вы не можете отвечать на сообщения
    Вы не можете редактировать свои сообщения
    Вы не можете удалять свои сообщения
    Вы не можете голосовать в опросах
    Вы не можете прикреплять файлы к сообщениям
    Вы можете скачивать файлы