Ссылка на приватное зеркало нашего сайта всего за 1$. Внимание количество ограничено!!!

2 сезон

iTunes

1 сезон

1

iTunes

iTunes

iTunes

1 сезон

RePack

30

ИГРА 18+

pack

ВАЖНО

!!Акция!!

Alien_RageХит недели

RePack

MK11
pack

Забери бонус

RePack

jed

!!Акция!!

Alien_Rage

RePack

fifa19

RePack

Assassins Creed: Odyssey

RePack

NEED FOR SPEED™ PAYBACK

4 сезон

9 сезон

Бесстыжие 9 сезон

Все сериалы

все сериалы на PB.wtf

RePack

FAR CRY 5
  

Консультант / Сезон: 1 / Серии: 1-10 из 10 (Алексей Рудаков) [2017, Детектив, триллер, HDTV 1080i] pb.wtf

Консультант через торрент pb.wtf

Размер: 28.84 GB | Добавлен: 2 года 7 мес. назад | Торрент скачан:19 раз
Скачать  

12-03-2018 05:29 Консультант Скачать торрент  

КонсультантГод выпуска: 2017
Страна: Россия
Жанр: Детектив, триллер
Продолжительность: 10 х 00:45:00
Субтитры: отсутствуют

Режиссер: Алексей Рудаков



В ролях:

Кирилл Кяро, Максим Дрозд, Светлана Иванова, Елена Великанова, Анастасия Чистякова, Иван Рудаков, Екатерина Вуличенко, Дмитрий Поднозов, Наталья Ткаченко, Владимир Матвеев, Фёдор Лавров, Алексей Байдаков, Сергей Барковский, Владимир Богданов, Юрий Ицков, Александр Большаков, Андрей Мокеев, Олег Фёдоров, Илья Борисов, Сергей Кузнецов, Павел Григорьев, Олег Куликович, Даниил Кокин, Наталья Щукина, Константин Демидов, Екатерина Унтилова, Ольга Онищенко, Наталья Парашкина

Описание:

1990-й год. В провинциальном городе идет суд над страшным маньяком, который терроризировал область зверскими убийствами в течение долгих лет. Приехавший из области эксперт-психолог Вячеслав Широков возмущает общественность неожиданным заявлением. По его мнению судят не того! Психологический портрет преступника, составленный Широковым по материалам дела, не соответствует психологическому портрету подсудимого. Вынесение приговора откладывают. Этим Широков наживает себе врагов в лице всего населения города, вступает в прямой конфликт со следователем Олегом Брагиным, который потратил десять лет жизни на поимку преступника и уверен в своей правоте. Широков и Брагин – антиподы, но вынуждены сотрудничать. Теорию Широкова о «психологическом портрете преступника» никто не воспринимает всерьез, пока в городе не происходит новое страшное убийство.

Качество: HDTV 1080i
Формат: MPEG-TS

Видео: MPEG-4 AVC, ~ 7900 Кбит/с, 1920x1080, 25 кадр/с
Аудио: MP2, 2 ch, 192 Кбит/с
скриншот   скриншот   скриншот  

Общее
Идентификатор : 1 (0x1)
Полное имя : D:\Konsultant.2016.HDTV.(1080i).Nikolspup\Konsultant.(01.seriya).2016.HDTV.(1080i).Nikolspup.ts
Формат : MPEG-TS
Размер файла : 2,85 Гбайт
Продолжительность : 48 м. 6 с.
Режим общего битрейта : Переменный
Общий поток : 8477 Кбит/сек

Видео
Идентификатор : 901 (0x385)
Идентификатор меню : 1081 (0x439)
Формат : AVC
Формат/Информация : Advanced Video Codec
Профиль формата : Main@L4
Параметр CABAC формата : Да
Параметр RefFrames формата : 2 кадра
Параметр GOP формата : M=3, N=30
Идентификатор кодека : 27
Продолжительность : 48 м. 6 с.
Битрейт : 7864 Кбит/сек
Ширина : 1920 пикселей
Высота : 1080 пикселей
Соотношение сторон : 16:9
Частота кадров : 25,000 кадров/сек
Цветовое пространство : YUV
Субдискретизация насыщенности : 4:2:0
Битовая глубина : 8 бит
Тип развёртки : MBAFF
Метод сохранения типа развёртки : Чередующиеся поля
Порядок развёртки : Верхнее поле первое
Бит/(Пиксели*Кадры) : 0.152
Размер потока : 2,64 Гбайт (93%)
Цветовой диапазон : Limited
Основные цвета : BT.709
Характеристики трансфера : BT.709
Коэффициенты матрицы : BT.709

Аудио
Идентификатор : 902 (0x386)
Идентификатор меню : 1081 (0x439)
Формат : MPEG Audio
Версия формата : Version 1
Профиль формата : Layer 2
Идентификатор кодека : 3
Продолжительность : 48 м. 6 с.
Вид битрейта : Постоянный
Битрейт : 192 Кбит/сек
Каналы : 2 канала
Частота : 48,0 КГц
Метод сжатия : С потерями
Задержка видео : -40 мс.
Размер потока : 66,1 Мбайт (2%)
Язык : Russian

pb.wtf



Скачать Консультант через торрент http://img12.lostpic.net/2018/03/11/11d88f3ef5810f43b4c7c42cf7d6068d.jpg Скачать фильм Консультант через торрент бесплантно в хорошем качестве Описание: 1990-й год. В провинциальном городе идет суд над страшным маньяком, который терроризировал область зверскими убийствами в течение ... 10 10 3
Торрент: Зарегистрирован [2018-03-12 05:29] · скачан: 19 раз
Статус: √ проверено
Размер: 28.84 GB
Как cкачать? Как скачать Консультант через торрент | qTorrent

% Раздел Тема Автор DL S | L
Наши сериалы [ 22.91 GB ] Консультант / Сезон: 1 / Серии: 1-16 из 16 [2020 WEB-DL 1080p] bober100 Скачать
1 | 0
Наши сериалы [ 14.52 GB ] Консультант / Сезон: 2 / Серии: 1-10 из 10 [2019 WEB-DL 720p] bober100 Скачать
2 | 0
Наши сериалы [ 21.32 GB ] Консультант / Сезон: 2 / Серии: 1-10 из 10 [2019 WEB-DL 1080p] bober100 Скачать
1 | 0
Наши сериалы [ 6.59 GB ] Консультант / Сезон: 2 / Серии: 1-10 из 10 [2019 SATRip] bober100 Скачать
1 | 0
Наши сериалы [ 6.21 GB ] Консультант / Сезон: 2 / Серии: 1-10 из 10 [2019 SATRip-AVC] aleksan55 Скачать
2 | 0
Наши сериалы [ 5.45 GB ] Консультант / Сезон: 2 / Серии: 1- 10 из 10 [2019 WEBRip] oleg8 Скачать
1 | 0
Наши сериалы [ 18.42 GB ] Консультант / Сезон: 1 / Серии: 1-10 из 10 [2017 WEB-DL 1080p] bober100 Скачать
1 | 0

28-11-2019 20:33  

Отключить всю рекламу на сайте

    Дорогой пользователь! Огромная просьба, поблагодарите релизера, оцените раздачу и оставьте свои комментарий, если Вы скачали Консультант через торрент бесплатно! Внесите свою лепту в развитие PiratBit!
    Комментировать посты могут только пользователи прошедшие не сложную регистрацию
    Показать сообщения:    

    Консультант через торрент
    Скачать бесплатно Консультант
    Консультант скачать торрент
    Консультант смотреть онлайн
    Cкачать фильм Консультант бесплатно
    Консультант скачать торрент в хорошем качестве
    Консультант смотреть онлайн бесплатно в хорошем качестве


    Вы не можете начинать темы
    Вы не можете отвечать на сообщения
    Вы не можете редактировать свои сообщения
    Вы не можете удалять свои сообщения
    Вы не можете голосовать в опросах
    Вы не можете прикреплять файлы к сообщениям
    Вы можете скачивать файлы