Ссылка на приватное зеркало всего за 1$. Внимание количество ограничено!!!

OK

1+1

iTunes

мы

OK

1

WEB-DLRip

Джокер

Пифагор

Ведьмак / The Witcher сериал

iTunes

ПШазам

ОК

Оно 2

iTunes

30
pack

Вам бонус

ВАЖНО

!!Акция!!

Alien_RageХит недели

RePack

Resident Evil 21

ИГРА 18+

pack

RePack

jed

RePack

fifa19

RePack

Assassins Creed: Odyssey

RePack

NEED FOR SPEED™ PAYBACK

4 сезон

9 сезон

Бесстыжие 9 сезон

Все сериалы

все сериалы на PB.wtf

RePack

FAR CRY 5
  

Нападение южных жареных зомби / Attack of the Southern Fried Zombies (Марк Ньютон) [2017, ужасы, BDRip 720p] MVO ["Синема УС"] pb.wtf

Нападение южных жареных зомби через торрент pb.wtf

Размер: 3.74 GB | Добавлен: 1 год 10 мес. назад | Торрент скачан:79 раз
Скачать  

12-03-2018 08:25 Нападение южных жареных зомби Скачать торрент  

Нападение южных жареных зомби / Attack of the Southern Fried ZombiesГод выпуска: 2017
Страна: США
Жанр: ужасы
Продолжительность: 01:25:17
Перевод: Любительский (многоголосый) - ["Синема УС"]
Субтитры: отсутствуют

Режиссер: Марк Ньютон

rating

В ролях:

Майлз Долеак, Джонни МакПайл, Майкл Эмери, Сьюзэн МакПайл, Кэйтлин Меш, Эскаланте Ланди, Моусес Дж. Моусли, Джереми Сэнд

Описание:

Недалёкое будущее. Растение кудзу, занесённое на юг США из Азии, начинает разрастаться бешеными темпами, уничтожая местную флору и нанося вред инфраструктуре. Для борьбы с ним учёные разрабатывают химикат и начинают полевые испытания. Но вместо уничтожения кудзу, химикат заставляет его мутировать, и, попав через мясо коз в организм людей, превращает последних в кровожадных зомби.

Качество: BDRip 720p
Формат: MKV
Видео кодек: H.264
Аудио кодек: AC3

Видео: 5823 Кбит/с, 1280x720
Аудио#1: AC3, 2 ch, 448 Кбит/с
скриншот  скриншот  скриншот  

Общее
Уникальный идентификатор : 241772248183052325521068907657478247927 (0xB5E3A428F1ABDADB9EED4DEE15EF95F7)
Полное имя : D:\Attack.of.the.Southern.Fried.Zombies.2017.P.BDRip.72Op_KOSHARA.mkv
Формат : Matroska
Версия формата : Version 2
Размер файла : 3,74 Гбайт
Продолжительность : 1 ч. 25 м.
Режим общего битрейта : Переменный
Общий поток : 6273 Кбит/сек
Дата кодирования : UTC 2018-03-11 11:19:25
Программа кодирования : mkvmerge v8.3.0 ('Over the Horizon') 64bit
Библиотека кодирования : libebml v1.3.1 + libmatroska v1.4.2

Видео
Идентификатор : 1
Формат : AVC
Формат/Информация : Advanced Video Codec
Профиль формата : High@L4.1
Параметр CABAC формата : Да
Параметр RefFrames формата : 4 кадра
Идентификатор кодека : V_MPEG4/ISO/AVC
Продолжительность : 1 ч. 25 м.
Вид битрейта : Переменный
Битрейт : 5823 Кбит/сек
Максимальный битрейт : 6500 Кбит/сек
Ширина : 1280 пикселей
Высота : 720 пикселей
Соотношение сторон : 16:9
Режим частоты кадров : Постоянный
Частота кадров : 23,976 (24000/1001) кадра/сек
Стандарт вещания : Component
Цветовое пространство : YUV
Субдискретизация насыщенности : 4:2:0
Битовая глубина : 8 бит
Тип развёртки : Прогрессивная
Бит/(Пиксели*Кадры) : 0.258
Размер потока : 3,40 Гбайт (91%)
Default : Да
Forced : Нет
Цветовой диапазон : Limited
Основные цвета : BT.709
Характеристики трансфера : BT.709
Коэффициенты матрицы : BT.709

Аудио
Идентификатор : 2
Формат : AC-3
Формат/Информация : Audio Coding 3
Расширение режима : CM (complete main)
Параметр Endianness формата : Big
Идентификатор кодека : A_AC3
Продолжительность : 1 ч. 25 м.
Вид битрейта : Постоянный
Битрейт : 448 Кбит/сек
Каналы : 2 канала
Расположение каналов : Front: L R
Частота : 48,0 КГц
Частота кадров : 31,250 кадров/сек (1536 spf)
Метод сжатия : С потерями
Размер потока : 273 Мбайт (7%)
Default : Да
Forced : Нет

pb.wtf



Скачать Нападение южных жареных зомби через торрент http://img12.lostpic.net/2018/03/12/35fa6c02430e07400257fba039cb8d4b.jpg Скачать фильм Нападение южных жареных зомби через торрент бесплантно в хорошем качестве Описание: Недалёкое будущее. Растение кудзу, занесённое на юг США из Азии, начинает разрастаться бешеными темпами, уничтожая местную флору ... 6.8 10 6
Торрент: Зарегистрирован [2018-03-12 08:25] · скачан: 79 раз
Статус: # сомнительно
Размер: 3.74 GB
Как cкачать? Как скачать Нападение южных жареных зомби через торрент | qTorrent

% Раздел Тема Автор DL S | L
T Фильмы (мультфильмы) cо спонсором показа (Новинки AVI/MKV) [ 1.37 GB ] Нападение южных жареных зомби / Attack of the Southern Fried Zombies [2017 HDRip] MVO ["Синема УС"] bober100 Скачать
1 | 0

28-11-2019 20:33  

Отключить всю рекламу на сайте

    Дорогой пользователь! Огромная просьба, поблагодарите релизера, оцените раздачу и оставьте свои комментарий, если Вы скачали Нападение южных жареных зомби через торрент бесплатно! Внесите свою лепту в развитие PiratBit!
    Комментировать посты могут только пользователи прошедшие не сложную регистрацию
    Показать сообщения:    

    Нападение южных жареных зомби через торрент
    Скачать бесплатно Нападение южных жареных зомби
    Нападение южных жареных зомби скачать торрент
    Нападение южных жареных зомби смотреть онлайн
    Cкачать фильм Нападение южных жареных зомби бесплатно
    Нападение южных жареных зомби скачать торрент в хорошем качестве
    Нападение южных жареных зомби смотреть онлайн бесплатно в хорошем качестве


    Вы не можете начинать темы
    Вы не можете отвечать на сообщения
    Вы не можете редактировать свои сообщения
    Вы не можете удалять свои сообщения
    Вы не можете голосовать в опросах
    Вы не можете прикреплять файлы к сообщениям
    Вы можете скачивать файлы