Доктор Стрэндж

Лицензия

Добыча

Дубляж

Дом дракона

1 сезон

Тор

Дубляж

В эфире

Дубляж

Там, где раки поют

MVO

Властелин колец

1 сезон

GLOBAL

pack

Рекомендуем

30

Пиратка

ВАЖНО

ВАЖНО

Ghostwire

Пиратка

jed

RePack

nioh2

RePack

RDR2

RePack

NEED FOR SPEED™ PAYBACK

RePack

скачать торрент

Кинопоиск HD

Острые козырьки 6 сезон

6 сезон

FAR CRY 6

RePack

скачать торрент

Лицензия

скачать торрент

MVO

1

1 сезон

скачать торрент

1 сезон

скачать торрент

Лицензия

  

Темный / The Darkest (Робин Энтреинджер) [2017, ужасы, WEB-DL 720p] MVO [КОЛОБОК]

Темный через торрент pb.wtf

Размер: 1.89 GB | Добавлен: 4 года 8 мес. назад | Торрент скачан:95 раз
Смотреть онлайн | Скачать   

12-03-2018 08:54 Темный Скачать торрент  

Темный / The DarkestГод выпуска: 2017
Страна: Франция
Жанр: ужасы
Продолжительность: 01:09:27
Перевод: Любительский (многоголосый) - [КОЛОБОК]
Субтитры: английские

Режиссер: Робин Энтреинджер

rating семпл


В ролях:

Клэр Суше, Валентин Бономм

Описание:

Палатка в горах, в глуши. Это должны были быть романтические выходные в дикой природе. Но когда тьма упала, это стало кошмаром. Они были не одни.

Качество: WEB-DL 720p
Формат: MKV

Видео: 3519 Кбит/с, 1280x692
Аудио#1: AC3, 2 ch, 384 Кбит/с
скриншот  скриншот  скриншот  

Общее
Уникальный идентификатор : 232148626829731913907778130779548362495 (0xAEA632FE81E9E1318E2985E1CAB326FF)
Полное имя : D:\The Darkest.2017.Pk.WEB-DL.72Op_KOSHARA.mkv
Формат : Matroska
Версия формата : Version 2
Размер файла : 1,89 Гбайт
Продолжительность : 1 ч. 9 м.
Режим общего битрейта : Переменный
Общий поток : 3905 Кбит/сек
Дата кодирования : UTC 2018-03-10 20:03:11
Программа кодирования : mkvmerge v8.3.0 ('Over the Horizon') 64bit
Библиотека кодирования : libebml v1.3.1 + libmatroska v1.4.2

Видео
Идентификатор : 1
Формат : AVC
Формат/Информация : Advanced Video Codec
Профиль формата : [email protected]
Параметр CABAC формата : Да
Параметр RefFrames формата : 4 кадра
Идентификатор кодека : V_MPEG4/ISO/AVC
Продолжительность : 1 ч. 9 м.
Вид битрейта : Переменный
Битрейт : 3519 Кбит/сек
Максимальный битрейт : 5000 Кбит/сек
Ширина : 1280 пикселей
Высота : 692 пикселя
Соотношение сторон : 1,85:1
Режим частоты кадров : Постоянный
Частота кадров : 23,976 (24000/1001) кадра/сек
Стандарт вещания : Component
Цветовое пространство : YUV
Субдискретизация насыщенности : 4:2:0
Битовая глубина : 8 бит
Тип развёртки : Прогрессивная
Бит/(Пиксели*Кадры) : 0.162
Размер потока : 1,67 Гбайт (88%)
Default : Да
Forced : Нет
Цветовой диапазон : Limited
Основные цвета : BT.709
Характеристики трансфера : BT.709
Коэффициенты матрицы : BT.709

Аудио
Идентификатор : 2
Формат : AC-3
Формат/Информация : Audio Coding 3
Расширение режима : CM (complete main)
Параметр Endianness формата : Big
Идентификатор кодека : A_AC3
Продолжительность : 1 ч. 9 м.
Вид битрейта : Постоянный
Битрейт : 384 Кбит/сек
Каналы : 2 канала
Расположение каналов : Front: L R
Частота : 48,0 КГц
Частота кадров : 31,250 кадров/сек (1536 spf)
Метод сжатия : С потерями
Размер потока : 191 Мбайт (10%)
Default : Да
Forced : Нет




Скачать Темный через торрент http://img12.lostpic.net/2018/03/12/e3cef2cc4bffb88608d293fcad07d3c3.jpg Скачать, смотреть онлайн Темный бесплантно в хорошем качестве Описание: Палатка в горах, в глуши. Это должны были быть романтические выходные в дикой природе. Но когда тьма упала, это стало кошмаром. ... 10 10 2
Торрент: Зарегистрирован [2018-03-12 08:54] · скачан: 95 раз
Статус: T временная
Размер: 1.89 GB
Как cкачать? Как скачать Темный через торрент | UTorrent

% Раздел Тема Автор DL S | L
T Фильмы (мультфильмы) cо спонсором показа (Новинки AVI/MKV) [ 1.37 GB ] Темный / The Darkest | MVO | DLRip bober100 Скачать
1 | 0

28-11-2019 20:33  


Отключить вcю реклaмy на сайте, в т.ч. и в плеере онлайн просмотра!

    Дорогой пользователь! Огромная просьба, поблагодарите релизера, оцените раздачу и оставьте свои комментарий, если Вы скачали Темный через торрент бесплатно!!
    Комментировать посты могут только пользователи прошедшие не сложную регистрацию
    Показать сообщения:    


    Темный через торрент
    Скачать бесплатно Темный
    Темный скачать торрент
    Темный смотреть онлайн
    Cкачать фильм Темный бесплатно
    Темный скачать торрент в хорошем качестве
    Темный смотреть онлайн бесплатно в хорошем качестве
    Вы не можете начинать темы
    Вы не можете отвечать на сообщения
    Вы не можете редактировать свои сообщения
    Вы не можете удалять свои сообщения
    Вы не можете голосовать в опросах
    Вы не можете прикреплять файлы к сообщениям
    Вы можете скачивать файлы
    Темный / The Darkest [2017, ужасы, WEB-DL 720p] MVO [КОЛОБОК] смотреть онлайн, скачать торрент picoco.icu