Ссылка на приватное зеркало всего за 1$. Внимание количество ограничено!!!

OK

1+1

iTunes

мы

OK

1

WEB-DLRip

Джокер

Пифагор

Ведьмак / The Witcher сериал

iTunes

ПШазам

ОК

Оно 2

iTunes

30
pack

Вам бонус

ВАЖНО

!!Акция!!

Alien_RageХит недели

RePack

Resident Evil 21

ИГРА 18+

pack

RePack

jed

RePack

fifa19

RePack

Assassins Creed: Odyssey

RePack

NEED FOR SPEED™ PAYBACK

4 сезон

9 сезон

Бесстыжие 9 сезон

Все сериалы

все сериалы на PB.wtf

RePack

FAR CRY 5
  

Коварная няня / The Au Pair / Devious Nanny (Девон Даунс) [2018, триллер, HDTVRip 720p] MVO ["Синема УС"] pb.wtf

Коварная няня через торрент pb.wtf

Размер: 2.64 GB | Добавлен: 1 год 10 мес. назад | Торрент скачан:55 раз
Скачать  

12-03-2018 09:53 Коварная няня Скачать торрент  

Коварная няня / The Au Pair / Devious NannyГод выпуска: 2018
Страна: США
Жанр: триллер
Продолжительность: 01:25:50
Перевод: Любительский (многоголосый) - ["Синема УС"]
Субтитры: отсутствуют

Режиссер: Девон Даунс

rating


В ролях:

Марк Барнс, Кэбби Бордерс, Мишель Борт, Антонио Цупо, Николас Гест, Лиза Лонг, Эрика Рингор, Майкл Роарк

Описание:

Брайан изменил жене. Но она готова простить его, чтобы сохранить семью и супруги решают начать всё заново. Элиза даже нанимает няней для сына самую симпатичную из кандидаток, чтобы испытать своего мужа. Но она не учитывает, что голубоглазая простушка может оказаться хитрее, чем кажется, и снова поставить их семью на грань распада.

Качество: HDTVRip 720p
Формат: MKV
Видео кодек: H.264
Аудио кодек: AC3

Видео: 4021 Кбит/с, 1280x720
Аудио#1: AC3, 2 ch, 384 Кбит/с
скриншот  скриншот  скриншот  

Общее
Уникальный идентификатор : 183534814480196154569076629732311889580 (0x8A1384FE3F26F2DFBC4D4EF2A332F6AC)
Полное имя : D:\Devious.Nanny.2017.P.HDTV.72Op_KOSHARA.mkv
Формат : Matroska
Версия формата : Version 2
Размер файла : 2,64 Гбайт
Продолжительность : 1 ч. 25 м.
Режим общего битрейта : Переменный
Общий поток : 4406 Кбит/сек
Дата кодирования : UTC 2018-03-10 20:12:40
Программа кодирования : mkvmerge v8.3.0 ('Over the Horizon') 64bit
Библиотека кодирования : libebml v1.3.1 + libmatroska v1.4.2

Видео
Идентификатор : 1
Формат : AVC
Формат/Информация : Advanced Video Codec
Профиль формата : High@L4.1
Параметр CABAC формата : Да
Параметр RefFrames формата : 4 кадра
Идентификатор кодека : V_MPEG4/ISO/AVC
Продолжительность : 1 ч. 25 м.
Вид битрейта : Переменный
Битрейт : 4021 Кбит/сек
Максимальный битрейт : 4500 Кбит/сек
Ширина : 1280 пикселей
Высота : 720 пикселей
Соотношение сторон : 16:9
Режим частоты кадров : Постоянный
Частота кадров : 23,976 (24000/1001) кадра/сек
Стандарт вещания : Component
Цветовое пространство : YUV
Субдискретизация насыщенности : 4:2:0
Битовая глубина : 8 бит
Тип развёртки : Прогрессивная
Бит/(Пиксели*Кадры) : 0.178
Размер потока : 2,36 Гбайт (89%)
Default : Да
Forced : Нет
Цветовой диапазон : Limited
Основные цвета : BT.709
Характеристики трансфера : BT.709
Коэффициенты матрицы : BT.709

Аудио
Идентификатор : 2
Формат : AC-3
Формат/Информация : Audio Coding 3
Расширение режима : CM (complete main)
Параметр Endianness формата : Big
Идентификатор кодека : A_AC3
Продолжительность : 1 ч. 25 м.
Вид битрейта : Постоянный
Битрейт : 384 Кбит/сек
Каналы : 2 канала
Расположение каналов : Front: L R
Частота : 48,0 КГц
Частота кадров : 31,250 кадров/сек (1536 spf)
Метод сжатия : С потерями
Размер потока : 236 Мбайт (9%)
Default : Да
Forced : Нет

pb.wtf



Скачать Коварная няня через торрент http://img12.lostpic.net/2018/03/12/1988d7e3d3a3e5bdfb7c799ab5b46a46.jpg Скачать фильм Коварная няня через торрент бесплантно в хорошем качестве Описание: Брайан изменил жене. Но она готова простить его, чтобы сохранить семью и супруги решают начать всё заново. Элиза даже нанимает ... 10 10 2
Торрент: Зарегистрирован [2018-03-12 09:53] · скачан: 55 раз
Статус: T временная
Размер: 2.64 GB
Как cкачать? Как скачать Коварная няня через торрент | qTorrent

% Раздел Тема Автор DL S | L
T Фильмы (мультфильмы) cо спонсором показа (Новинки AVI/MKV) [ 1.37 GB ] Коварная няня / The Au Pair / Devious Nanny [2018 HDTVRip] MVO ["Синема УС"] bober100 Скачать
1 | 0

28-11-2019 20:33  

Отключить всю рекламу на сайте

    Дорогой пользователь! Огромная просьба, поблагодарите релизера, оцените раздачу и оставьте свои комментарий, если Вы скачали Коварная няня через торрент бесплатно! Внесите свою лепту в развитие PiratBit!
    Комментировать посты могут только пользователи прошедшие не сложную регистрацию
    Показать сообщения:    

    Коварная няня через торрент
    Скачать бесплатно Коварная няня
    Коварная няня скачать торрент
    Коварная няня смотреть онлайн
    Cкачать фильм Коварная няня бесплатно
    Коварная няня скачать торрент в хорошем качестве
    Коварная няня смотреть онлайн бесплатно в хорошем качестве


    Вы не можете начинать темы
    Вы не можете отвечать на сообщения
    Вы не можете редактировать свои сообщения
    Вы не можете удалять свои сообщения
    Вы не можете голосовать в опросах
    Вы не можете прикреплять файлы к сообщениям
    Вы можете скачивать файлы