Ссылка на приватное зеркало всего за 1$. Внимание количество ограничено!!!

OK

1+1

iTunes

мы

OK

1

WEB-DLRip

Джокер

Пифагор

Ведьмак / The Witcher сериал

Лицензия

ПШазам

ОК

Оно 2

iTunes

30
pack

Вам бонус

ВАЖНО

!!Акция!!

Alien_RageХит недели

RePack

Resident Evil 21

ИГРА 18+

pack

RePack

jed

RePack

fifa19

RePack

Assassins Creed: Odyssey

RePack

NEED FOR SPEED™ PAYBACK

4 сезон

9 сезон

Бесстыжие 9 сезон

Все сериалы

все сериалы на PB.wtf

RePack

FAR CRY 5
  

Зловещая двойня / The Terrible Two (Билли Льюис) [2018, ужасы, триллер, WEB-DL 720p] MVO [@MUZOBOZ@] pb.wtf

Зловещая двойня через торрент pb.wtf

Размер: 2.81 GB | Добавлен: 1 год 10 мес. назад | Торрент скачан:44 раза
Скачать  

12-03-2018 10:06 Зловещая двойня Скачать торрент  

Зловещая двойня / The Terrible TwoГод выпуска: 2018
Страна: США
Жанр: ужасы, триллер
Продолжительность: 01:24:57
Перевод: Любительский (многоголосый) [@MUZOBOZ@]
Субтитры: отсутствуют

Режиссер: Билли Льюис

rating

В ролях:

Донни Боас, Кери Москоу, Девин МакГи, Шэйн Каллахан, Карен Лаббе, Трэйси МакМуллан, Эрик Йохан

Описание:

Фильм рассказывает о жизни Альберта и Роуз в течение четырех дней, на которые пришлась годовщина гибели их дочерей. Девочки погибли в свой день рождения. Вскоре мы узнаем больше о смерти девочек и доме, который семейство считало своим убежищем.

Качество: WEB-DL 720p
Формат: MKV
Видео кодек: H.264
Аудио кодек: AC3

Видео: 4351 Кбит/с, 1280x720
Аудио#1: AC3, 2 ch, 384 Кбит/с
скриншот  скриншот  скриншот  

Общее
Уникальный идентификатор : 234010179914183407614565670912636230202 (0xB00CB8A5BA8271BCAA20C84C40AC1A3A)
Полное имя : D:\The.Terrible.Two.2018.P.WEB-DL.72Op.mkv
Формат : Matroska
Версия формата : Version 2
Размер файла : 2,81 Гбайт
Продолжительность : 1 ч. 24 м.
Режим общего битрейта : Переменный
Общий поток : 4737 Кбит/сек
Дата кодирования : UTC 2018-03-10 19:24:15
Программа кодирования : mkvmerge v8.3.0 ('Over the Horizon') 64bit
Библиотека кодирования : libebml v1.3.1 + libmatroska v1.4.2

Видео
Идентификатор : 1
Формат : AVC
Формат/Информация : Advanced Video Codec
Профиль формата : High@L4.1
Параметр CABAC формата : Да
Параметр RefFrames формата : 4 кадра
Идентификатор кодека : V_MPEG4/ISO/AVC
Продолжительность : 1 ч. 24 м.
Вид битрейта : Переменный
Битрейт : 4351 Кбит/сек
Максимальный битрейт : 5000 Кбит/сек
Ширина : 1280 пикселей
Высота : 720 пикселей
Соотношение сторон : 16:9
Режим частоты кадров : Постоянный
Частота кадров : 23,976 (24000/1001) кадра/сек
Стандарт вещания : Component
Цветовое пространство : YUV
Субдискретизация насыщенности : 4:2:0
Битовая глубина : 8 бит
Тип развёртки : Прогрессивная
Бит/(Пиксели*Кадры) : 0.193
Размер потока : 2,53 Гбайт (90%)
Default : Да
Forced : Нет
Цветовой диапазон : Limited
Основные цвета : BT.709
Характеристики трансфера : BT.709
Коэффициенты матрицы : BT.709

Аудио
Идентификатор : 2
Формат : AC-3
Формат/Информация : Audio Coding 3
Расширение режима : CM (complete main)
Параметр Endianness формата : Big
Идентификатор кодека : A_AC3
Продолжительность : 1 ч. 24 м.
Вид битрейта : Постоянный
Битрейт : 384 Кбит/сек
Каналы : 2 канала
Расположение каналов : Front: L R
Частота : 48,0 КГц
Частота кадров : 31,250 кадров/сек (1536 spf)
Метод сжатия : С потерями
Размер потока : 233 Мбайт (8%)
Default : Да
Forced : Нет

pb.wtf



Скачать Зловещая двойня через торрент http://img12.lostpic.net/2018/03/12/a71a4ed6c245c24387ad9f2742e5702c.jpg Скачать фильм Зловещая двойня через торрент бесплантно в хорошем качестве Описание: Фильм рассказывает о жизни Альберта и Роуз в течение четырех дней, на которые пришлась годовщина гибели их дочерей. Девочки ... 10 10 2
Торрент: Зарегистрирован [2018-03-12 10:06] · скачан: 44 раз
Статус: T временная
Размер: 2.81 GB
Как cкачать? Как скачать Зловещая двойня через торрент | qTorrent

% Раздел Тема Автор DL S | L
T Фильмы (мультфильмы) cо спонсором показа (Новинки AVI/MKV) [ 1.36 GB ] Зловещая двойня / The Terrible Two [2018 WEB-DLRip] MVO [@MUZOBOZ@] bober100 Скачать
1 | 0

28-11-2019 20:33  

Отключить всю рекламу на сайте

    Дорогой пользователь! Огромная просьба, поблагодарите релизера, оцените раздачу и оставьте свои комментарий, если Вы скачали Зловещая двойня через торрент бесплатно! Внесите свою лепту в развитие PiratBit!
    Комментировать посты могут только пользователи прошедшие не сложную регистрацию
    Показать сообщения:    

    Зловещая двойня через торрент
    Скачать бесплатно Зловещая двойня
    Зловещая двойня скачать торрент
    Зловещая двойня смотреть онлайн
    Cкачать фильм Зловещая двойня бесплатно
    Зловещая двойня скачать торрент в хорошем качестве
    Зловещая двойня смотреть онлайн бесплатно в хорошем качестве


    Вы не можете начинать темы
    Вы не можете отвечать на сообщения
    Вы не можете редактировать свои сообщения
    Вы не можете удалять свои сообщения
    Вы не можете голосовать в опросах
    Вы не можете прикреплять файлы к сообщениям
    Вы можете скачивать файлы