Ссылка на приватное зеркало нашего сайта всего за 1$. Внимание количество ограничено!!!

2 сезон

iTunes

1 сезон

1

2 сезон

2 сезон

iTunes

1 сезон

RePack

30

Ultimate

ВАЖНО

ИГРА 18+

pack

RePack

MK11
pack

Забери бонус

RePack

jed

!!Акция!!

Alien_Rage

RePack

fifa19

RePack

Assassins Creed: Odyssey

RePack

NEED FOR SPEED™ PAYBACK

4 сезон

9 сезон

Бесстыжие 9 сезон

Все сериалы

все сериалы на PB.wtf

RePack

FAR CRY 5
  

Клятва / The Oath / Сезон: 1 / Серии: 1-10 из 10 (Джефф Т. Томас) [2018, Драма, криминал, биография, WEBRip] MVO [ColdFilm] pb.wtf

Клятва через торрент pb.wtf

Размер: 4.21 GB | Добавлен: 2 года 8 мес. назад | Торрент скачан:26 раз
Скачать  

12-03-2018 11:20 Клятва Скачать торрент  

Клятва / The OathГод выпуска: 2018
Страна: США
Жанр: Драма, криминал, биография
Продолжительность: ~00:45:00 серия
Перевод: Любительский (многоголосый) -
Субтитры: отсутствуют

Режиссер: Джефф Т. Томас

rating

В ролях:

Катрина Ло (Karen Beach), Джозеф Джулиан Сория (Ramos), Элизабет Рём (Agent Aria Price), Шон Бин (Tom Hammond), Райан Квантен (Steve Hammond), Кори Хардрикт (Cole Hammond), Арлен Эскарпета (Damon Byrd), Luis Clemente-Rivera (Neckbone's Bodyguard), Роберт Госсетт (Charles Ryder), Клинт Джеймс (Sanders), Исаак Кис (G), Кваме Паттерсон (Neckbone)

Описание:

Полицейский Том Хэммонд живёт двойной жизнью. Страж закона - лидер жестокой преступной группировки «Вороны», состоящей из полицейских. Но наказание неминуемо: о преступной деятельности Хэммонда узнает спецагент ФБР, работающий под прикрытием. Дело доходит до суда, и бывший коп отправляется в тюрьму, получив длительный срок. Но Хэммонд не теряет надежды выйти на свободу и вновь стать лидером банды, отомстив всем, кто его предал.

Качество: WEBRip
Формат: AVI

Видео: 1176 Кбит/с, 720x400, 29.970 fps
Аудио: Русский (MP3, 2 ch, 128 Кбит/с)
скриншот   скриншот   скриншот   скриншот  

Общее
Полное имя : D:\The.Oath.S01.400p.ColdFilm\The.Oath.S01E01.400p.ColdFilm.avi
Формат : AVI
Формат/Информация : Audio Video Interleave
Размер файла : 473 Мбайт
Продолжительность : 49 м. 29 с.
Общий поток : 1335 Кбит/сек
Программа кодирования : Lavf57.40.101

Видео
Идентификатор : 1
Формат : MPEG-4 Visual
Профиль формата : Advanced Simple@L1
Параметр BVOP формата : Нет
Параметр QPel формата : Нет
Параметр GMC формата : Без точки перехода
Параметр матрицы формата : Default (H.263)
Идентификатор кодека : FMP4
Продолжительность : 49 м. 29 с.
Битрейт : 1176 Кбит/сек
Ширина : 720 пикселей
Высота : 400 пикселей
Соотношение сторон : 16:9
Режим частоты кадров : Переменный
Частота кадров : 119,880 (24/30) кадров/сек
Минимальная частота кадров : 23,976 кадра/сек
Максимальная частота кадров : 29,970 кадров/сек
Цветовое пространство : YUV
Субдискретизация насыщенности : 4:2:0
Битовая глубина : 8 бит
Тип развёртки : Прогрессивная
Метод сжатия : С потерями
Бит/(Пиксели*Кадры) : 0.034
Размер потока : 416 Мбайт (88%)
Библиотека кодирования : Lavc57.48.101

Аудио
Идентификатор : 0
Формат : MPEG Audio
Версия формата : Version 1
Профиль формата : Layer 3
Режим : Joint stereo
Расширение режима : MS Stereo
Идентификатор кодека : 55
Идентификатор кодека/Подсказка : MP3
Продолжительность : 49 м. 29 с.
Вид битрейта : Постоянный
Битрейт : 128 Кбит/сек
Каналы : 2 канала
Частота : 48,0 КГц
Метод сжатия : С потерями
Размер потока : 45,3 Мбайт (10%)
Выравнивание : Соединение по промежуткам
Продолжительность промежутка : 8 мс. (1,00 видеокадр)

pb.wtf



Скачать Клятва через торрент http://img12.lostpic.net/2018/03/12/b7603bcdf82aa47c8497605db3014cc2.jpg Скачать фильм Клятва через торрент бесплантно в хорошем качестве Описание: Полицейский Том Хэммонд живёт двойной жизнью. Страж закона - лидер жестокой преступной группировки «Вороны», состоящей из ... 10 10 4
Торрент: Зарегистрирован [2018-03-12 11:20] · скачан: 26 раз
Статус: √ проверено
Размер: 4.21 GB
Как cкачать? Как скачать Клятва через торрент | qTorrent

% Раздел Тема Автор DL S | L
Зарубежные сериалы [ 14.93 GB ] Клятва / The Oath / Сезон: 2 / Серии: 1-8 из 8 [2019 WEB-DL 1080p] [MVO] killermax2013 Скачать
1 | 0
Зарубежные сериалы [ 15.56 GB ] Клятва / The Oath / Сезон: 2 / Серии: 1-8 из 8 [2019 WEB-DL 1080p] MVO [Jaskier] bober100 Скачать
1 | 0
Зарубежные сериалы [ 15.28 GB ] Клятва / The Oath / Сезон: 2 / Серии 1-8 из 8 [2018 WEBRip 1080p] [MVO] killermax2013 Скачать
1 | 0
Зарубежные сериалы [ 19.55 GB ] Клятва / The Oath / Сезон: 1 / Серии 1-10 из 10 [2018 WEBRip 1080p] [MVO] killermax2013 Скачать
1 | 0
Зарубежные сериалы [ 5.54 GB ] Клятва / The Oath / Сезон: 1 / Серии 1-10 из 10 [2018 WEBRip] [MVO] killermax2013 Скачать
1 | 0
Зарубежные сериалы [ 8.36 GB ] Клятва / The Oath / Сезон: 1 / Серии: 1-10 из 10 [2018 биография WEBRip 720p] MVO [Jaskier] bober100 Скачать
1 | 0
Зарубежные сериалы [ 5.37 GB ] Клятва / The Oath / Сезон: 1 / Серии: 1-10 из 10 [2018 биография WEB-DLRip] MVO [NewStudio] bober100 Скачать
1 | 0

28-11-2019 20:33  

Отключить всю рекламу на сайте

    Дорогой пользователь! Огромная просьба, поблагодарите релизера, оцените раздачу и оставьте свои комментарий, если Вы скачали Клятва через торрент бесплатно! Внесите свою лепту в развитие PiratBit!
    Комментировать посты могут только пользователи прошедшие не сложную регистрацию
    Показать сообщения:    

    Клятва через торрент
    Скачать бесплатно Клятва
    Клятва скачать торрент
    Клятва смотреть онлайн
    Cкачать фильм Клятва бесплатно
    Клятва скачать торрент в хорошем качестве
    Клятва смотреть онлайн бесплатно в хорошем качестве


    Вы не можете начинать темы
    Вы не можете отвечать на сообщения
    Вы не можете редактировать свои сообщения
    Вы не можете удалять свои сообщения
    Вы не можете голосовать в опросах
    Вы не можете прикреплять файлы к сообщениям
    Вы можете скачивать файлы