Ссылка на приватное зеркало нашего сайта всего за 1$. Внимание количество ограничено!!!

2 сезон

iTunes

1 сезон

1

2 сезон

2 сезон

iTunes

1 сезон

RePack

30

Ultimate

ВАЖНО

ИГРА 18+

pack

RePack

MK11
pack

Забери бонус

RePack

jed

!!Акция!!

Alien_Rage

RePack

fifa19

RePack

Assassins Creed: Odyssey

RePack

NEED FOR SPEED™ PAYBACK

4 сезон

9 сезон

Бесстыжие 9 сезон

Все сериалы

все сериалы на PB.wtf

RePack

FAR CRY 5
  

Клятва / The Oath / Сезон: 1 / Серии: 1-10 из 10 (Джефф Т. Томас) [2018, Драма, криминал, биография, WEBRip 720p] MVO [BaibaKo] pb.wtf

Клятва через торрент pb.wtf

Размер: 9.56 GB | Добавлен: 2 года 8 мес. назад | Торрент скачан:35 раз
Скачать  

12-03-2018 11:33 Клятва Скачать торрент  

Клятва / The Oath Год выпуска: 2018
Страна: США
Жанр: Драма, криминал, биография
Продолжительность: ~00:45:00 серия
Перевод: Профессиональный многоголосый -
Субтитры: отсутствуют

Режиссер: Джефф Т. Томас

rating

В ролях:

Катрина Ло (Karen Beach), Джозеф Джулиан Сория (Ramos), Элизабет Рём (Agent Aria Price), Шон Бин (Tom Hammond), Райан Квантен (Steve Hammond), Кори Хардрикт (Cole Hammond), Арлен Эскарпета (Damon Byrd), Luis Clemente-Rivera (Neckbone's Bodyguard), Роберт Госсетт (Charles Ryder), Клинт Джеймс (Sanders), Исаак Кис (G), Кваме Паттерсон (Neckbone)

Описание:

Полицейский Том Хэммонд живёт двойной жизнью. Страж закона - лидер жестокой преступной группировки «Вороны», состоящей из полицейских. Но наказание неминуемо: о преступной деятельности Хэммонда узнает спецагент ФБР, работающий под прикрытием. Дело доходит до суда, и бывший коп отправляется в тюрьму, получив длительный срок. Но Хэммонд не теряет надежды выйти на свободу и вновь стать лидером банды, отомстив всем, кто его предал.

Качество: WEBRip 720p
Формат: MKV

Видео: 1280x720 at 24.000 fps, x264, ~2400 kbps avg
Аудио#1: Russian: 48 kHz, AC3, 2/0 (L,R) ch, ~384 kbps avg |Многоголосый закадровый, BaibaKo|
Аудио#2: English: 48 kHz, AC3, 2/0 (L,R) ch, ~384 kbps avg


***Примечание: Без рекламы.

Общее
Уникальный идентификатор : 190153168664092218886976253674591428314 (0x8F0E2B0C353EFD20A08C81C3F1091EDA)
Полное имя : D:\Клятва. Сериал. BaibaKo (WEBRip 720p)\s01e01. Эпизод 1.mkv
Формат : Matroska
Версия формата : Version 2
Размер файла : 1,05 Гбайт
Продолжительность : 49 м. 3 с.
Общий поток : 3055 Кбит/сек
Дата кодирования : UTC 2018-03-09 11:22:34
Программа кодирования : mkvmerge v7.8.0 ('River Man') 32bit built on Apr 3 2015 12:11:22
Библиотека кодирования : libebml v1.3.1 + libmatroska v1.4.2

Видео
Идентификатор : 1
Формат : AVC
Формат/Информация : Advanced Video Codec
Профиль формата : Main@L3.1
Параметр CABAC формата : Да
Параметр RefFrames формата : 2 кадра
Идентификатор кодека : V_MPEG4/ISO/AVC
Продолжительность : 49 м. 3 с.
Битрейт : 2227 Кбит/сек
Номинальный битрейт : 2372 Кбит/сек
Ширина : 1280 пикселей
Высота : 720 пикселей
Соотношение сторон : 16:9
Режим частоты кадров : Постоянный
Частота кадров : 23,976 (24000/1001) кадра/сек
Частота кадров в оригинале : 24,000 кадра/сек
Цветовое пространство : YUV
Субдискретизация насыщенности : 4:2:0
Битовая глубина : 8 бит
Тип развёртки : Прогрессивная
Бит/(Пиксели*Кадры) : 0.101
Размер потока : 781 Мбайт (73%)
Библиотека кодирования : x264 core 148 r2579M 73ae2d1
Настройки программы : cabac=1 / ref=2 / deblock=1:0:0 / analyse=0x1:0x111 / me=hex / subme=2 / psy=1 / psy_rd=1.00:0.00 / mixed_ref=0 / me_range=16 / chroma_me=1 / trellis=0 / 8x8dct=0 / cqm=0 / deadzone=21,11 / fast_pskip=1 / chroma_qp_offset=0 / threads=1 / lookahead_threads=1 / sliced_threads=0 / nr=250 / decimate=1 / interlaced=0 / bluray_compat=0 / stitchable=1 / constrained_intra=0 / bframes=0 / weightp=1 / keyint=250 / keyint_min=24 / scenecut=40 / intra_refresh=0 / rc_lookahead=10 / rc=2pass / mbtree=1 / bitrate=2372 / ratetol=1.0 / qcomp=0.60 / qpmin=5 / qpmax=69 / qpstep=4 / cplxblur=20.0 / qblur=0.5 / ip_ratio=1.40 / aq=1:1.00
Язык : English
Default : Да
Forced : Нет

Аудио #1
Идентификатор : 2
Формат : AC-3
Формат/Информация : Audio Coding 3
Расширение режима : CM (complete main)
Параметр Endianness формата : Big
Идентификатор кодека : A_AC3
Продолжительность : 49 м. 3 с.
Вид битрейта : Постоянный
Битрейт : 384 Кбит/сек
Каналы : 2 канала
Расположение каналов : Front: L R
Частота : 48,0 КГц
Частота кадров : 31,250 кадров/сек (1536 spf)
Метод сжатия : С потерями
Задержка видео : -21 мс.
Размер потока : 135 Мбайт (13%)
Язык : Russian
Default : Да
Forced : Нет

Аудио #2
Идентификатор : 3
Формат : AC-3
Формат/Информация : Audio Coding 3
Расширение режима : CM (complete main)
Параметр Endianness формата : Big
Идентификатор кодека : A_AC3
Продолжительность : 49 м. 3 с.
Вид битрейта : Постоянный
Битрейт : 384 Кбит/сек
Каналы : 2 канала
Расположение каналов : Front: L R
Частота : 48,0 КГц
Частота кадров : 31,250 кадров/сек (1536 spf)
Метод сжатия : С потерями
Задержка видео : -21 мс.
Размер потока : 135 Мбайт (13%)
Язык : English
Default : Нет
Forced : Нет

pb.wtf



Скачать Клятва через торрент http://img12.lostpic.net/2018/03/12/26574588e5350d7741f55fe26f33fae1.jpg Скачать фильм Клятва через торрент бесплантно в хорошем качестве Описание: Полицейский Том Хэммонд живёт двойной жизнью. Страж закона - лидер жестокой преступной группировки «Вороны», состоящей из ... 10 10 2
Info! Серебряная раздача, засчитывается только 50% скачанного.
Торрент: Зарегистрирован [2018-03-12 11:33] · скачан: 35 раз
Статус: √ проверено
Размер: 9.56 GB
Как cкачать? Как скачать Клятва через торрент | qTorrent

% Раздел Тема Автор DL S | L
Зарубежные сериалы [ 14.93 GB ] Клятва / The Oath / Сезон: 2 / Серии: 1-8 из 8 [2019 WEB-DL 1080p] [MVO] killermax2013 Скачать
1 | 0
Зарубежные сериалы [ 15.56 GB ] Клятва / The Oath / Сезон: 2 / Серии: 1-8 из 8 [2019 WEB-DL 1080p] MVO [Jaskier] bober100 Скачать
1 | 0
Зарубежные сериалы [ 15.28 GB ] Клятва / The Oath / Сезон: 2 / Серии 1-8 из 8 [2018 WEBRip 1080p] [MVO] killermax2013 Скачать
1 | 0
Зарубежные сериалы [ 19.55 GB ] Клятва / The Oath / Сезон: 1 / Серии 1-10 из 10 [2018 WEBRip 1080p] [MVO] killermax2013 Скачать
1 | 0
Зарубежные сериалы [ 5.54 GB ] Клятва / The Oath / Сезон: 1 / Серии 1-10 из 10 [2018 WEBRip] [MVO] killermax2013 Скачать
1 | 0
Зарубежные сериалы [ 8.36 GB ] Клятва / The Oath / Сезон: 1 / Серии: 1-10 из 10 [2018 биография WEBRip 720p] MVO [Jaskier] bober100 Скачать
1 | 0
Зарубежные сериалы [ 5.37 GB ] Клятва / The Oath / Сезон: 1 / Серии: 1-10 из 10 [2018 биография WEB-DLRip] MVO [NewStudio] bober100 Скачать
1 | 0

28-11-2019 20:33  

Отключить всю рекламу на сайте

    Дорогой пользователь! Огромная просьба, поблагодарите релизера, оцените раздачу и оставьте свои комментарий, если Вы скачали Клятва через торрент бесплатно! Внесите свою лепту в развитие PiratBit!
    Комментировать посты могут только пользователи прошедшие не сложную регистрацию
    Показать сообщения:    

    Клятва через торрент
    Скачать бесплатно Клятва
    Клятва скачать торрент
    Клятва смотреть онлайн
    Cкачать фильм Клятва бесплатно
    Клятва скачать торрент в хорошем качестве
    Клятва смотреть онлайн бесплатно в хорошем качестве


    Вы не можете начинать темы
    Вы не можете отвечать на сообщения
    Вы не можете редактировать свои сообщения
    Вы не можете удалять свои сообщения
    Вы не можете голосовать в опросах
    Вы не можете прикреплять файлы к сообщениям
    Вы можете скачивать файлы