2 сезон

iTunes

MVO

1

2 сезон

iTunes

iTunes

1 сезон

RePack

30

Новинка

ВАЖНО

ИГРА 18+

pack

RePack

MK11
pack

Легкие деньги

RePack

jed

RePack

fifa19

RePack

RDR2

RePack

NEED FOR SPEED™ PAYBACK

4 сезон

9 сезон

Бесстыжие 9 сезон

Все сериалы

все сериалы на PB.wtf

RePack

FAR CRY 5

Anonymous, доброе утро, мы не успеваем собрать деньги на оплату серверов за декабрь и январь, помогите нам пожалуйста в это трудное время. В качестве благодарности мы отключим Вам всю рекламу на сайте (укажите свой ник в строку Ваше имя)!

×
  
Magnet ссылка

Полуночный человек / The Midnight Man (Трэвис Заривны) [2017 г., ужасы, WEB-DLRip-AVC] Дубляж - [iTunes] (Без рекламы) - ExKinoRay pb.wtf

Полуночный человек через торрент pb.wtf

Размер: 1.13 GB | Добавлен: 2 года 10 мес. назад | Торрент скачан:127 раз
Скачать  

25-01-2018 21:31 Полуночный человек Скачать торрент  

Информация о фильме
Название: Полуночный человек
Оригинальное название: The Midnight Man
Год выпуска: 2017
Жанр: Ужасы
Выпущено: США, Канада, Bridge Finance Company, Midnight Productions
Продолжительность: 01:29:12
Перевод: Дублированный | iTunes
Режиссер: Трэвис Заривны
В ролях: Лин Шэй, Габриэль Хоф, Грэйсон Сзакакс, Эмили Хейн, Саммер Х. Хауэлл, Луиз Линтон, Майкл Сироу, Роберт Инглунд, Логан Креран, Калли Лэйн

Описание:
Алекс переехала в дом к своей бабушке, чтобы заботиться о ней. Разбираясь в хламе на чердаке, она обнаружила старинную настольную игру, с помощью которой можно вызвать мистическое существо, известное как Полуночный человек. Вместе со своими друзьями героиня фильма решает сыграть в нее, однако подростки и не подозревают о том, что Полуночный человек существует на самом деле и вскоре он появится, чтобы воплотить наяву их самые страшные кошмары.




Файл
Формат: MKV
Качество: WEB-DLRip-AVC
Видео: MPEG-4 AVC, 1024x428 (2.40:1), 25.000 fps, ~1422 kbps avg, 0.130 bit/pixel
Звук: AC3, 48.0 KHz, 5.1 ch, 384 kbps
General
Unique ID : 216757939522825936627449246635747854967 (0xA3120F862C4F4918B40BDB2FF8364A77)
Complete name : D:\The.Midnight.Man.2O17.D.WEB-DLRip.AVC.ExKinoRay.mkv
Format : Matroska
Format version : Version 2
File size : 1.13 GiB
Duration : 1 h 29 min
Overall bit rate : 1 808 kb/s
Movie name : The Midnight Man 2O17 from ExKinoRay
Encoded date : UTC 2018-02-23 05:31:11
Writing application : mkvmerge v5.6.0 ('Kenya Kane') built on May 27 2012 16:44:04
Writing library : libebml v1.2.3 + libmatroska v1.3.0

Video
ID : 1
Format : AVC
Format/Info : Advanced Video Codec
Format profile : High@L4.1
Format settings, CABAC : Yes
Format settings, ReFrames : 12 frames
Codec ID : V_MPEG4/ISO/AVC
Duration : 1 h 29 min
Bit rate : 1 422 kb/s
Width : 1 024 pixels
Height : 428 pixels
Display aspect ratio : 2.40:1
Frame rate mode : Constant
Frame rate : 25.000 FPS
Color space : YUV
Chroma subsampling : 4:2:0
Bit depth : 8 bits
Scan type : Progressive
Bits/(Pixel*Frame) : 0.130
Stream size : 886 MiB (77%)
Title : Enigma
Writing library : x264 core 152 r2851 ba24899
Encoding settings : cabac=1 / ref=12 / deblock=1:-2:-2 / analyse=0x3:0x113 / me=umh / subme=10 / psy=1 / psy_rd=1.00:0.05 / mixed_ref=1 / me_range=32 / chroma_me=1 / trellis=2 / 8x8dct=1 / cqm=0 / deadzone=21,11 / fast_pskip=0 / chroma_qp_offset=-3 / threads=12 / lookahead_threads=3 / sliced_threads=0 / nr=0 / decimate=0 / interlaced=0 / bluray_compat=0 / constrained_intra=0 / bframes=10 / b_pyramid=2 / b_adapt=2 / b_bias=0 / direct=3 / weightb=1 / open_gop=0 / weightp=2 / keyint=240 / keyint_min=24 / scenecut=40 / intra_refresh=0 / rc_lookahead=40 / rc=2pass / mbtree=0 / bitrate=1422 / ratetol=1.0 / qcomp=0.60 / qpmin=0 / qpmax=51 / qpstep=4 / cplxblur=20.0 / qblur=0.5 / vbv_maxrate=50000 / vbv_bufsize=62500 / nal_hrd=none / filler=0 / ip_ratio=1.40 / pb_ratio=1.30 / aq=1:1.00
Language : English
Default : Yes
Forced : No
Color range : Limited
Color primaries : BT.709
Transfer characteristics : BT.709
Matrix coefficients : BT.709

Audio
ID : 2
Format : AC-3
Format/Info : Audio Coding 3
Mode extension : CM (complete main)
Format settings, Endianness : Big
Codec ID : A_AC3
Duration : 1 h 29 min
Bit rate mode : Constant
Bit rate : 384 kb/s
Channel(s) : 6 channels
Channel positions : Front: L C R, Side: L R, LFE
Sampling rate : 48.0 kHz
Frame rate : 31.250 FPS (1536 spf)
Compression mode : Lossy
Stream size : 245 MiB (21%)
Language : Russian
Default : Yes
Forced : No

Menu
00:00:00.000 : en:Глава 1
00:07:07.680 : en:Глава 2
00:15:08.000 : en:Глава 3
00:20:13.440 : en:Глава 4
00:25:35.440 : en:Глава 5
00:31:26.720 : en:Глава 6
00:36:44.560 : en:Глава 7
00:43:35.880 : en:Глава 8
00:49:03.280 : en:Глава 9
00:55:52.000 : en:Глава 10
01:00:31.200 : en:Глава 11
01:06:11.480 : en:Глава 12
01:12:34.800 : en:Глава 13
01:17:59.840 : en:Глава 14
Релиз от:

Автор релиза: pb.wtf



Скачать Полуночный человек через торрент http://lostpix.com/img/2018-01/26/5u4l3qumfm0yvito843eimj8z.jpg Скачать фильм Полуночный человек через торрент бесплантно в хорошем качестве Описание: Алекс переехала в дом к своей бабушке, чтобы заботиться о ней. Разбираясь в хламе на чердаке, она обнаружила старинную ... 10 10 2
Торрент: Зарегистрирован [2018-03-12 11:37] · скачан: 127 раз
Статус: √ проверено
Размер: 1.13 GB
Как cкачать? Как скачать Полуночный человек через торрент | UTorrent



Последний раз редактировалось: Enigma2010 (2018-02-23 06:23), всего редактировалось 3 раз(а)

28-11-2019 20:33  

Отключить всю рекламу на сайте

01-02-2018 19:21 Полуночный человек Скачать торрент  

Оставлю я свой отзыв о данном фильме. , , , страхоебище вселенских масштабов. Какой дурак снял это дерьмище, худшего отстоя я еще не виде. Это произведение даже до уровня тв3 не дотягивает, один момент с подружкой главной героини чего стоит- пришла такая, и говорит- ооо вы играете, тут вам без моей помощи не обойтись, вступает в игру и когда должен прийти неминуемый она верещит как , а какого же ты лезла сюда дура хули ты из себя рембо корчила. Короче режиссер, если ты прочитаешь это года нибудь, то желаю тебе попасть на нигерскую вечеруху чтоб тебя там в рот отодрали мастер pb.wtf



  Мат., выдал Ворон

23-02-2018 07:03 Полуночный человек Скачать торрент  

мощный комент javascript:emoticon(' ')pb.wtf



23-02-2018 07:11 Полуночный человек Скачать торрент  

sashok610 писал(а):

Оставлю я свой отзыв о данном фильме. , , , страхоебище вселенских масштабов. Какой дурак снял это дерьмище, худшего отстоя я еще не виде. Это произведение даже до уровня тв3 не дотягивает, один момент с подружкой главной героини чего стоит- пришла такая, и говорит- ооо вы играете, тут вам без моей помощи не обойтись, вступает в игру и когда должен прийти неминуемый она верещит как , а какого же ты лезла сюда дура хули ты из себя рембо корчила. Короче режиссер, если ты прочитаешь это года нибудь, то желаю тебе попасть на нигерскую вечеруху чтоб тебя там в рот отодрали мастер

Хотел "качнуть",но после такого коментария пройду мимо pb.wtf



23-02-2018 11:53 Полуночный человек Скачать торрент  

Комент огонь!
Даже скрины смотреть не буду! Раздающему плюс.
Вот умора, оборжался, спасибо добрый человек, развеселил! pb.wtf



23-02-2018 17:55 Полуночный человек Скачать торрент  

))))pb.wtf



23-02-2018 18:41 Полуночный человек Скачать торрент  

sashok610 писал(а):

Оставлю я свой отзыв о данном фильме. , , , страхоебище вселенских масштабов. Какой дурак снял это дерьмище, худшего отстоя я еще не виде. Это произведение даже до уровня тв3 не дотягивает, один момент с подружкой главной героини чего стоит- пришла такая, и говорит- ооо вы играете, тут вам без моей помощи не обойтись, вступает в игру и когда должен прийти неминуемый она верещит как , а какого же ты лезла сюда дура хули ты из себя рембо корчила. Короче режиссер, если ты прочитаешь это года нибудь, то желаю тебе попасть на нигерскую вечеруху чтоб тебя там в рот отодрали мастер

Вот настоящая рецензия к фильму - четко и понятно что смотреть не стоит.pb.wtf



24-02-2018 05:48 Полуночный человек Скачать торрент  

Респект за коммент! Мимо однозначно.
Странно, что золото для этого отстоя не пожалели.pb.wtf



12-03-2018 12:24 Полуночный человек Скачать торрент  

Тот случай, когда комментарий к фильму лучше самого фильма.pb.wtf



12-03-2018 18:33 Полуночный человек Скачать торрент  

Сперва - думаю кучну. Ан нет, комент весь фильм рассказал. Зачем забивать канал трафиком торрента, если есть такие добрые люди ;-)pb.wtf



12-03-2018 18:43 Полуночный человек Скачать торрент  

BorislavShakur писал(а):

Тот случай, когда комментарий к фильму лучше самого фильма.

pb.wtf



12-03-2018 18:46 Полуночный человек Скачать торрент  

Зачем вы цитируете подобные комментарии? Ваши же дети будут их читать и потом так разговаривать.
Ну написал один неподумав, получил желтую.
Вы зачем мусолите и мусолите?pb.wtf



    Дорогой пользователь! Огромная просьба, поблагодарите релизера, оцените раздачу и оставьте свои комментарий, если Вы скачали Полуночный человек через торрент бесплатно! Внесите свою лепту в развитие PiratBit!
    Комментировать посты могут только пользователи прошедшие не сложную регистрацию
    Показать сообщения:    

    Полуночный человек через торрент
    Скачать бесплатно Полуночный человек
    Полуночный человек скачать торрент
    Полуночный человек смотреть онлайн
    Cкачать фильм Полуночный человек бесплатно
    Полуночный человек скачать торрент в хорошем качестве
    Полуночный человек смотреть онлайн бесплатно в хорошем качестве


    Вы не можете начинать темы
    Вы не можете отвечать на сообщения
    Вы не можете редактировать свои сообщения
    Вы не можете удалять свои сообщения
    Вы не можете голосовать в опросах
    Вы не можете прикреплять файлы к сообщениям
    Вы можете скачивать файлы